↑↓torrent.by
Поиск
Логин:  Регистрация
Пароль:

Курьер / El correo / The Courier (2024) WEB-DL 1080p от JNS82 | L

download Скачать торрент-файл   magnet Магнитная ссылка Размер: 4.11 GB Раздают: 0 Качают: 1 Добавлен: 2024-05-19 17:00
Пиры будут получены из сети DHT
Последний сидер был замечен сегодня в 19:11
Курьер / El correo / The Courier Год выпуска: 2024 Выпущено: Испания, Бельгия, Франция / Canal+, Instituto de la Cinematografía y de las Artes Audiovisuales (ICAA), La Compagnie Cinématographique Жанр: Криминал, драма, триллер Режиссер: Даниэль Кальпарсоро / Daniel Calparsoro В ролях: Арон Пайпер, Мария Педраса, Луис, Тосар, Лаура Сепул, Нурдин Батан, Хосе Мануэль Пога, Луис Заэра, Лукас Ольшевский, Альберто Джо Ли О фильме: Фильм Рассказывает о жулике и его восхождении на вершину коррупции, которая создала пузырь на рынке недвижимости после введения евро в Испании. Продолжительность: 01:42:28 Перевод: Любительский (многоголосый, закадровый) | AlphaProject Субтитры: Русские, английские Автор релиза: JNS82. Формат: MKV Качество: WEB-DL 1080p | NF Видео: MPEG-4 AVC, 5000 Кбит/с, 1920x1080 Аудио #1: AC3, 2 ch, 192 Кбит/с | RUS | Аудио #2: E-AC3, 6 ch, 640 Кбит/с | SPA |
[+] MediaInfoОбщее Уникальный идентификатор : 337875667607271594318361482263707943740 (0xFE307C9003621680057DD706E562833C) Полное имя : D:TorrentsThe.Courier.2024.1080p.NF.WEB-DL_от_JNS82.mkv Формат : Matroska Версия формата : Version 4 Размер файла : 4,11 Гбайт Продолжительность : 1 ч. 42 м. Режим общего битрейта : Переменный Общий поток : 5 740 Кбит/сек Название фильма : The.Courier.2024.1080p.NF.WEB-DL_от_JNS82 Дата кодирования : UTC 2024-05-19 06:27:59 Программа кодирования : mkvmerge v79.0 ('Funeral Pyres') 64-bit Библиотека кодирования : libebml v1.4.4 + libmatroska v1.7.1 Видео Идентификатор : 1 Формат : AVC Формат/Информация : Advanced Video Codec Профиль формата : Main@L4 Настройки формата : CABAC / 3 Ref Frames Параметр CABAC формата : Да Параметр RefFrames формата : 3 кадра Идентификатор кодека : V_MPEG4/ISO/AVC Продолжительность : 1 ч. 42 м. Вид битрейта : Переменный Битрейт : 5 000 Кбит/сек Максимальный битрейт : 7 500 Кбит/сек Ширина : 1 920 пикселей Высота : 1 080 пикселей Соотношение сторон : 16:9 Режим частоты кадров : Постоянный Частота кадров : 24,000 кадра/сек Цветовое пространство : YUV Субдискретизация насыщенности : 4:2:0 Битовая глубина : 8 бит Тип развёртки : Прогрессивная Бит/(Пиксели*Кадры) : 0.100 Размер потока : 3,51 Гбайт (85%) Библиотека кодирования : x264 core 148 r2727 7d026e8 Настройки программы : cabac=1 / ref=3 / deblock=1:0:0 / analyse=0x1:0x111 / me=umh / subme=10 / psy=1 / psy_rd=1.00:0.00 / mixed_ref=1 / me_range=24 / chroma_me=1 / trellis=2 / 8x8dct=0 / cqm=0 / deadzone=21,11 / fast_pskip=1 / chroma_qp_offset=-2 / threads=6 / lookahead_threads=1 / sliced_threads=0 / nr=0 / decimate=1 / interlaced=0 / bluray_compat=0 / stitchable=1 / constrained_intra=0 / bframes=2 / b_pyramid=0 / b_adapt=2 / b_bias=0 / direct=3 / weightb=1 / open_gop=0 / weightp=2 / keyint=240 / keyint_min=121 / scenecut=0 / intra_refresh=0 / rc_lookahead=48 / rc=2pass / mbtree=1 / bitrate=5000 / ratetol=1.0 / qcomp=0.50 / qpmin=6 / qpmax=51 / qpstep=4 / cplxblur=20.0 / qblur=0.5 / vbv_maxrate=7500 / vbv_bufsize=10000 / nal_hrd=vbr / filler=0 / ip_ratio=1.40 / aq=1:1.00 Default : Да Forced : Нет Аудио #1 Идентификатор : 2 Формат : AC-3 Формат/Информация : Audio Coding 3 Коммерческое название : Dolby Digital Идентификатор кодека : A_AC3 Продолжительность : 1 ч. 42 м. Вид битрейта : Постоянный Битрейт : 192 Кбит/сек Каналы : 2 канала Channel layout : L R Частота : 48,0 КГц Частота кадров : 31,250 кадров/сек (1536 SPF) Метод сжатия : С потерями Размер потока : 141 Мбайт (3%) Заголовок : MVO - AlphaProject Язык : Russian Service kind : Complete Main Default : Да Forced : Нет Аудио #2 Идентификатор : 3 Формат : E-AC-3 Формат/Информация : Enhanced AC-3 Коммерческое название : Dolby Digital Plus Идентификатор кодека : A_EAC3 Продолжительность : 1 ч. 42 м. Вид битрейта : Постоянный Битрейт : 640 Кбит/сек Каналы : 6 каналов Channel layout : L R C LFE Ls Rs Частота : 48,0 КГц Частота кадров : 31,250 кадров/сек (1536 SPF) Метод сжатия : С потерями Размер потока : 469 Мбайт (11%) Заголовок : Original Язык : Spanish Service kind : Complete Main Default : Нет Forced : Нет Текст #1 Идентификатор : 4 Формат : UTF-8 Идентификатор кодека : S_TEXT/UTF8 Идентификатор кодека/Информация : UTF-8 Plain Text Продолжительность : 1 ч. 40 м. Битрейт : 82 бит/сек Count of elements : 1166 Размер потока : 60,8 Кбайт (0%) Заголовок : Язык : Russian Default : Нет Forced : Нет Текст #2 Идентификатор : 5 Формат : UTF-8 Идентификатор кодека : S_TEXT/UTF8 Идентификатор кодека/Информация : UTF-8 Plain Text Продолжительность : 1 ч. 36 м. Битрейт : 2 бит/сек Count of elements : 60 Размер потока : 1,57 Кбайт (0%) Заголовок : Язык : English Default : Нет Forced : Нет Текст #3 Идентификатор : 6 Формат : UTF-8 Идентификатор кодека : S_TEXT/UTF8 Идентификатор кодека/Информация : UTF-8 Plain Text Продолжительность : 1 ч. 36 м. Битрейт : 71 бит/сек Count of elements : 1463 Размер потока : 50,6 Кбайт (0%) Заголовок : Язык : English Default : Нет Forced : Нет Меню 00:00:00.000 : en:Chapter 1 01:36:38.000 : en:Credits

Всего файлов в раздаче: 1 
The.Courier.2024.1080p.NF.WEB-DL_от_JNS82.mkv4.11 GB

Похожие раздачи по запросу - Курьер
2024-06-15 magnet Курьер (1986) WEB-DLRip 1080p 5.29 GB ↑ 0 ↓ 0
2024-05-20 magnet Курьер / El correo / The Courier (2024) WEB-DLRip-AVC от DoMiNo | L 1.51 GB ↑ 0 ↓ 0

Кто качает (только для создателя раздачи и модераторов):
ПользовательIP:портОтдалПринялОстатокСидируетТоррент клиентОбновился
1 Аноним 188.244.44.47:38145 0.00 B 0.00 B 8589934592.00 GB нет -qB4390- 20:30 2024-06-17

Комментарии


Зарегистрируйтесь чтобы добавить комментарий
Торрент клиент
byTorrent - программа для загрузки торрент-файлов.

Скачать byTorrent.exe (1,5 МБ)

Скачать byTorrent.zip (0,6 МБ)

Поддержи torrent.by
российских рублей
(300 российских рублей это 4$)

Обратная связь rss

End game ©