↑↓torrent.by
Поиск
Логин:  Регистрация
Пароль:

Гость / The Guest (2014) BDRip 720p от KinoGadget | iPad | D

download Скачать торрент-файл   magnet Магнитная ссылка Размер: 1.36 GB Добавлен: 2024-05-20 05:00
Пиры будут получены из сети DHT
Последний сидер был замечен 2024-05-21 12:50
Год выпуска: 2014 Оригинальное название: The Guest Страна: США, Великобритания Жанр: триллер, боевик Возраст: 18+ Режиссер: Адам Вингард В ролях: Дэн Стивенс, Майка Монро, Брендан Мейер, Шейла Келли, Лиленд Орсер, Лэнс Реддик, Табата Шон, Чейз Уильямсон, Джоэл Мур, Стивен Браун Описание: Семья Петерсон недавно потеряла на войне в Афганистане своего сына Калеба и все еще оплакивает его. История начинается с появления на пороге их дома таинственного незнакомца Дэвида, который говорит безутешным родителям, что он армейский товарищ их сына и приехал, выполняя тем самым его последнюю волю. Родные Калеба рады принять Дэвида. Но вскоре после появления в доме гостя происходит серия странных смертей… Продолжительность: 01:40:25 Перевод: Дублированный Оригинальная дорожка: нет Автор рипа: Качество видео: BDRip 720p Исходник: Blu-Ray Remux (1080p) Формат: mp4 Видео кодек: MPEG-4 AVC Аудио кодек: AAC Видео: 1280x532 (2.40:1) at 23.976 fps, AVC at 1 765 kbps avg, 0.108 bit/pixel Аудио №1 Rus: 48.0 KHz, AAC, 2 ch, 160.0 Kbps Субтитры: нет Навигация по главам: есть Размер: 1.36 GiB
[+] Log x264avs : 1280x532p 1:1 @ 24000/1001 fps (cfr) x264 : using SAR=1/1 x264 : using cpu capabilities: MMX2 SSE2Fast SSSE3 Cache64 x264 : profile High, level 4.1 x264 : frame I:1186 Avg QP:15.51 size: 87815 x264 : frame P:28416 Avg QP:18.52 size: 19762 x264 : frame B:114853 Avg QP:20.09 size: 5781 x264 : consecutive B-frames: 1.7% 1.5% 5.0% 9.1% 16.2% 56.8% 9.7% x264 : mb I I16..4: 10.7% 73.0% 16.3% x264 : mb P I16..4: 2.4% 7.8% 1.1% P16..4: 48.3% 19.6% 13.5% 0.0% 0.0% skip: 7.2% x264 : mb B I16..4: 0.1% 0.6% 0.1% B16..8: 43.8% 5.1% 0.8% direct: 4.0% skip:45.4% L0:45.9% L1:49.8% BI: 4.3% x264 : 8x8 transform intra:70.6% inter:73.1% x264 : coded y,uvDC,uvAC intra: 67.4% 89.3% 68.4% inter: 14.1% 28.3% 3.6% x264 : i16 v,h,dc,p: 43% 13% 6% 38% x264 : i8 v,h,dc,ddl,ddr,vr,hd,vl,hu: 22% 13% 21% 6% 8% 9% 8% 8% 7% x264 : i4 v,h,dc,ddl,ddr,vr,hd,vl,hu: 38% 13% 14% 5% 8% 7% 6% 5% 4% x264 : i8c dc,h,v,p: 51% 16% 22% 11% x264 : Weighted P-Frames: Y:4.2% UV:3.1% x264 : ref P L0: 51.3% 9.1% 17.5% 6.6% 5.4% 4.1% 3.6% 2.2% 0.1% 0.0% x264 : ref B L0: 78.2% 10.5% 5.4% 2.5% 1.9% 1.1% 0.4% x264 : ref B L1: 94.0% 6.0% x264 : kb/s:1765.51 encoded 144455 frames, 2.27 fps, 1765.51 kb/s
[+] MIGeneral Complete name : ...Gost_2014_KinoGadget.mp4 Format : MPEG-4 Format profile : Base Media Codec ID : isom (isom) File size : 1.36 GiB Duration : 1 h 40 min Overall bit rate mode : Variable Overall bit rate : 1 933 kb/s Movie name : Гость | KinoGadget Performer : Адам Вингард Director : Адам Вингард Actor : Дэн Стивенс / Майка Монро / Брендан Мейер / Шейла Келли / Лиленд Орсер / Лэнс Реддик / Табата Шон / Чейз Уильямсон / Джоэл Мур / Стивен Браун Screenplay by : Саймон Баррет Producer : Кит Калдер / Джессика У / Саймон Баррет Genre : Action, Thriller ContentType : Short Film Recorded date : 2014 Encoded date : UTC 2017-12-11 15:24:42 Tagged date : UTC 2017-12-11 15:56:43 Cover : Yes ContentRating : mpaa|R|400| LongDeion : Семья Петерсон недавно потеряла на войне в Афганистане сына Калеба и все еще оплакивает его. Вдруг на пороге их дома появляется незнакомый им ранее Дэвид, который говорит безутешным родителям, что он армейский товарищ их сына, и приехал, выполняя тем самым его последнюю волю. Родные Калеба рады принять Дэвида, но вскоре после появления в доме гостя в округе происходит серия смертей. HDVideo : Yes Video ID : 1 Format : AVC Format/Info : Advanced Video Codec Format profile : High@L4.1 Format settings : CABAC / 8 Ref Frames Format settings, CABAC : Yes Format settings, ReFrames : 8 frames Codec ID : avc1 Codec ID/Info : Advanced Video Coding Duration : 1 h 40 min Bit rate : 1 765 kb/s Maximum bit rate : 9 109 kb/s Width : 1 280 pixels Height : 532 pixels Display aspect ratio : 2.40:1 Frame rate mode : Constant Frame rate : 23.976 (24000/1001) FPS Color space : YUV Chroma subsampling : 4:2:0 Bit depth : 8 bits Scan type : Progressive Bits/(Pixel*Frame) : 0.108 Stream size : 1.24 GiB (91%) Writing library : x264 core 152 r2851 ba24899 Encoding settings : cabac=1 / ref=8 / deblock=1:-2:-1 / analyse=0x3:0x113 / me=umh / subme=7 / psy=1 / psy_rd=1.00:0.00 / mixed_ref=1 / me_range=32 / chroma_me=1 / trellis=2 / 8x8dct=1 / cqm=0 / deadzone=21,11 / fast_pskip=0 / chroma_qp_offset=-2 / threads=3 / lookahead_threads=1 / sliced_threads=0 / nr=0 / decimate=1 / interlaced=0 / bluray_compat=0 / constrained_intra=0 / bframes=6 / b_pyramid=2 / b_adapt=2 / b_bias=0 / direct=1 / weightb=1 / open_gop=0 / weightp=2 / keyint=250 / keyint_min=25 / scenecut=40 / intra_refresh=0 / rc_lookahead=60 / rc=crf / mbtree=1 / crf=19.0 / qcomp=0.60 / qpmin=0 / qpmax=69 / qpstep=4 / vbv_maxrate=62500 / vbv_bufsize=78125 / crf_max=0.0 / nal_hrd=none / filler=0 / ip_ratio=1.40 / aq=1:1.00 Encoded date : UTC 2017-12-11 03:24:48 Tagged date : UTC 2017-12-11 15:25:46 Menus : 3 Audio ID : 2 Format : AAC Format/Info : Advanced Audio Codec Format profile : LC Codec ID : mp4a-40-2 Duration : 1 h 40 min Bit rate mode : Variable Bit rate : 160 kb/s Maximum bit rate : 168 kb/s Channel(s) : 2 channels Channel positions : Front: L R Sampling rate : 48.0 kHz Frame rate : 46.875 FPS (1024 SPF) Compression mode : Lossy Stream size : 115 MiB (8%) Language : Russian Encoded date : UTC 2017-12-11 03:38:19 Tagged date : UTC 2017-12-11 15:25:46 Menu #1 00:00:00.000 : 00:00:00.000 00:05:38.129 : 00:05:38.129 00:09:36.158 : 00:09:36.158 00:15:39.772 : 00:15:39.772 00:20:37.653 : 00:20:37.653 00:26:07.356 : 00:26:07.356 00:31:22.422 : 00:31:22.422 00:36:32.940 : 00:36:32.940 00:40:39.478 : 00:40:39.478 00:46:43.257 : 00:46:43.257 00:49:52.530 : 00:49:52.530 00:55:04.217 : 00:55:04.217 01:00:38.925 : 01:00:38.925 01:04:13.349 : 01:04:13.349 01:09:22.740 : 01:09:22.740 01:15:38.408 : 01:15:38.408 01:20:08.052 : 01:20:08.052 01:25:00.677 : 01:25:00.677 01:30:15.201 : 01:30:15.201 01:35:42.903 : 01:35:42.903 Menu #2 ID : 3 Codec ID : text Duration : 1 h 40 min Encoded date : UTC 2017-12-11 15:56:43 Tagged date : UTC 2017-12-11 15:56:43 Menu For : 1 00:00:00.000 : Chapter 1
[+] Скриншоты
Данный рип предназначен для просмотра на мобильных гаджетах с поддержкой формата mp4

Всего файлов в раздаче: 1 
Gost_2014_KinoGadget.mp41.36 GB

Похожие раздачи по запросу - Гость
2024-06-04 magnet Влад Порошин - Гость из будущего. Том 1 (2024) FB2 960.46 kB ↑ 0 ↓ 0
2024-05-18 magnet Гость / The Guest (2014) BDRip-HEVC 1080p от HEVC-CLUB | iTunes 6.63 GB ↑ 0 ↓ 0
2024-05-17 magnet Гость / The Guest (2014) BDRip 1080p | iTunes 12.05 GB ↑ 0 ↓ 0

Кто качает (только для создателя раздачи и модераторов): Локальные пиры отсутствуют

Комментарии


Зарегистрируйтесь чтобы добавить комментарий
Торрент клиент
byTorrent - программа для загрузки торрент-файлов.

Скачать byTorrent.exe (1,5 МБ)

Скачать byTorrent.zip (0,6 МБ)

Поддержи torrent.by
российских рублей
(300 российских рублей это 4$)

Обратная связь rss

End game ©