↑↓torrent.by
Поиск
Логин:  Регистрация
Пароль:

Знания Иллюминати / Illuminati Knowledge (2012) BDRip 1080p

download Скачать торрент-файл   magnet Магнитная ссылка Размер: 4.76 GB Добавлен: 2024-05-20 05:00
Пиры будут получены из сети DHT
Последний сидер был замечен 2024-06-07 15:14
Информация о фильме Название: Знания Иллюминати Оригинальное название: Illuminati Knowledge Год выхода: 2012 Жанр: Документальный, расследование, научно-популярный Режиссер: Illuminati Insider В ролях: Illuminati Insider, Дэн Браун, Киша Кроутер, Александр Смирнов О фильме: Автор фильма больной раком , выдаёт всю информацию которую ему передал Krixen (как он представился) - масон 32-ого градуса. Цитата автора: "Теперь после 2-ух лет,проведя собственный анализ, я пришел к выводу что Krixen, передал мне подлинное знание Иллюминати. Однако я не имею понятия откуда он всё это узнал если он масон. Оно включает 42 пункта разнообразной информации,первым в котором стоит полая земля.Я смотрю на этот список,и некоторые вещи ставят меня в тупик и по сей день,потому что в отличии от полой Земли я вообще не знаю как их доказать. Я работаю над этим." (Подробнее на сайте автора.) Официальный сайт Страна: Россия Студия: Illuminati Expose Entertainment Продолжительность: 04:09:35 Перевод: Оригинальный - русский Файл Кодек: Windows Media Video 9 Качество: BDRip 1080 Видео: 1920x1080,2 487 Kbps,29.970 fps Звук: WMA, CBR, 192 Kbps,2 channels,48.0 KHz Субтитры: Не требуются
[+] MediaInfo: Общее Полное имя : F:Новая папкаZnanija_Illuminati1080p.wmv Формат : Windows Media Размер файла : 4,76 Гбайт Продолжительность : 4 ч. 9 м. Режим общего битрейта : Переменный Общий поток : 2730 Кбит/сек Максимальный общий битрейт : 24,0 Мбит/сек Дата кодирования : UTC 2012-02-18 07:08:53.628 Видео Идентификатор : 1 Формат : VC-1 Профиль формата : MP@HL Идентификатор кодека : WMV3 Идентификатор кодека/Информация : Windows Media Video 9 Идентификатор кодека/Подсказка : WMV3 Описание кодека : Windows Media Video 9 - Professional Продолжительность : 4 ч. 9 м. Вид битрейта : Переменный Битрейт : 2487 Кбит/сек Ширина : 1920 пикселей Высота : 1080 пикселей Соотношение сторон : 16:9 Частота кадров : 29,970 (29970/1000) кадров/сек Цветовое пространство : YUV Субдискретизация насыщенности : 4:2:0 Битовая глубина : 8 бит Тип развёртки : Прогрессивная Метод сжатия : С потерями Бит/(Пиксели*Кадры) : 0.040 Размер потока : 4,34 Гбайт (91%) Язык : Russian Аудио Идентификатор : 2 Формат : WMA Версия формата : Version 2 Идентификатор кодека : 161 Идентификатор кодека/Информация : Windows Media Audio Описание кодека : Windows Media Audio 9.2 - 192 kbps, 48 kHz, stereo 1-pass CBR Продолжительность : 4 ч. 9 м. Вид битрейта : Постоянный Битрейт : 192 Кбит/сек Каналы : 2 канала Частота : 48,0 КГц Битовая глубина : 16 бит Размер потока : 343 Мбайт (7%) Язык : Russian
[+] Скриншоты
Релиз от:

Всего файлов в раздаче: 1 
Znanija_Illuminati1080p.wmv4.76 GB

Кто качает (только для создателя раздачи и модераторов): Локальные пиры отсутствуют

Комментарии


Зарегистрируйтесь чтобы добавить комментарий
Торрент клиент
byTorrent - программа для загрузки торрент-файлов.

Скачать byTorrent.exe (1,5 МБ)

Скачать byTorrent.zip (0,6 МБ)

Поддержи torrent.by
российских рублей
(300 российских рублей это 4$)

Обратная связь rss

End game ©