↑↓torrent.by
Поиск
Логин:  Регистрация
Пароль:

Горький 53 [S01] (2024) WEB-DLRip-AVC от Generalfilm | КПК

download Скачать торрент-файл   magnet Магнитная ссылка Размер: 1.71 GB Добавлен: 2024-05-20 05:00
Пиры будут получены из сети DHT
Последний сидер был замечен 2024-05-26 12:12
Информация о фильме Оригинальное название: Горький 53 Год выпуска: 2024 Жанр: Детектив, криминал Режиссер: Сергей Коротаев В ролях: Андрей Фролов, Алексей Барабаш, Екатерина Климова, Катерина Шпица, Александр Балуев, Алексей Макаров, Михаил Евланов, Александр Семчев, Любовь Константинова, Владимир Бирюков О сериале: 1953 год. Из-за массовой амнистии в СССР напряженная криминальная обстановка. В это же время в родной город Горький возвращается освободившийся из тюрьмы Иван Астафьев, бывший командир разведвзвода. И тут же становится жертвой нападения бандитов, а затем и ложного обвинения в избиении нападавших. Из беды выручает довоенный знакомый Ивана — капитан Шведов, который устраивает его на работу в спортивное общество «Динамо» обучать милиционеров рукопашному бою. Но вести мирную жизнь не получается: Иван оказывается втянут в круговорот жестоких преступлений, в одном из которых убивают его брата с женой. Под подозрением вновь оказывается Астафьев. Его вынуждают заключить тайную сделку с милицией, организовывают показной побег и требуют внедриться в самую могущественную банду Горького. Герой должен заманить в ловушку ее главаря Харитона, избавить город от криминала и, наконец, вернуть себе свою жизнь. Страна: Россия Студия: Кинокомпания "ТРОМЕДИА" Продолжительность: 8 х ~ 00:50:00 Перевод: Не требуется Файл Формат: MP4 Качество: WEB-DLRip-AVC Видео: MPEG-4 AVC (x264), 640x272, ~ 500 kbps, 25.000 fps Аудио: AAC LC, 48.0 KHz, 2 ch, 128 Kbps Субтитры: Русские, внешние
[+] Скриншоты
[+] MIComplete name : D:киноGor'kii.53.S01.2024.WEB-DLRip-AVC.KPK.GFGor'kii.53.s01e02.2024.WEB-DLRip-AVC.KPK.GF.mp4 Format : MPEG-4 Codec ID : M4V (isom/iso2/avc1) File size : 233 MiB Duration : 52mn 2s Overall bit rate mode : Variable Overall bit rate : 625 Kbps Writing application : Lavf53.19.0 Video ID : 1 Format : AVC Format/Info : Advanced Video Codec Format profile : High@L4.1 Format settings, CABAC : Yes Format settings, ReFrames : 8 frames Codec ID : avc1 Codec ID/Info : Advanced Video Coding Duration : 52mn 2s Bit rate : 500 Kbps Width : 640 pixels Height : 272 pixels Display aspect ratio : 2.35:1 Frame rate mode : Constant Frame rate : 25.000 fps Color space : YUV Chroma subsampling : 4:2:0 Bit depth : 8 bits Scan type : Progressive Bits/(Pixel*Frame) : 0.115 Stream size : 186 MiB (80%) Writing library : x264 core 146 r2538 121396c Encoding settings : cabac=1 / ref=8 / deblock=1:-1:-1 / analyse=0x3:0x133 / me=umh / subme=10 / psy=1 / psy_rd=1.00:0.00 / mixed_ref=1 / me_range=24 / chroma_me=1 / trellis=2 / 8x8dct=1 / cqm=0 / deadzone=21,11 / fast_pskip=1 / chroma_qp_offset=-2 / threads=3 / lookahead_threads=1 / sliced_threads=0 / nr=0 / decimate=1 / interlaced=0 / bluray_compat=0 / constrained_intra=0 / bframes=8 / b_pyramid=2 / b_adapt=2 / b_bias=0 / direct=3 / weightb=1 / open_gop=0 / weightp=2 / keyint=250 / keyint_min=126 / scenecut=40 / intra_refresh=0 / rc_lookahead=40 / rc=2pass / mbtree=1 / bitrate=500 / ratetol=1.0 / qcomp=0.60 / qpmin=0 / qpmax=69 / qpstep=4 / cplxblur=20.0 / qblur=0.5 / ip_ratio=1.40 / aq=1:1.00 Menus : 3 Audio ID : 2 Format : AAC Format/Info : Advanced Audio Codec Format profile : LC Codec ID : 40 Duration : 49mn 0s Bit rate mode : Variable Bit rate : 128 Kbps Channel(s) : 2 channels Channel positions : Front: L R Sampling rate : 48.0 KHz Frame rate : 46.875 fps (1024 spf) Compression mode : Lossy Stream size : 44.3 MiB (19%) Default : Yes Alternate group : 1 Menus : 3
Релиз от:

Всего файлов в раздаче: 16 
Gor'kii.53.s01e01.2024.WEB-DLRip-AVC.KPK.GF.mp4223.22 MB
Gor'kii.53.s01e01.2024.WEB-DLRip-AVC.KPK.GF.srt56.77 kB
Gor'kii.53.s01e02.2024.WEB-DLRip-AVC.KPK.GF.mp4290.83 MB
Gor'kii.53.s01e02.2024.WEB-DLRip-AVC.KPK.GF.srt66.62 kB
Gor'kii.53.s01e03.2024.WEB-DLRip-AVC.KPK.GF.mp4208.22 MB
Gor'kii.53.s01e03.2024.WEB-DLRip-AVC.KPK.GF.srt51.26 kB
Gor'kii.53.s01e04.2024.WEB-DLRip-AVC.KPK.GF.mp4208.18 MB
Gor'kii.53.s01e04.2024.WEB-DLRip-AVC.KPK.GF.srt49.36 kB
Gor'kii.53.s01e05.2024.WEB-DLRip-AVC.KPK.GF.mp4203.36 MB
Gor'kii.53.s01e05.2024.WEB-DLRip-AVC.KPK.GF.srt49.28 kB
Показать все файлы

Похожие раздачи по запросу - Горький
2024-04-25 magnet Горький 53 [S01] (2024) WEB-DLRip от Generalfilm | КПК 1К1.39 GB ↑ 0 ↓ 0
2024-04-25 magnet Горький 53 [S01] (2024) WEB-DLRip от Files-x 4.95 GB ↑ 0 ↓ 0
2024-04-24 magnet Горький 53 [S01] (2024) WEB-DLRip-AVC от Files-x 5.19 GB ↑ 0 ↓ 0
2024-04-24 magnet Горький 53 [S01] (2024) WEB-DLRip 5.15 GB ↑ 0 ↓ 0
2024-04-23 magnet Горький 53 [S01] (2024) WEB-DL 720p от ExKinoRay 7.70 GB ↑ 0 ↓ 0
2024-04-23 magnet Горький 53 [S01] (2024) WEB-DL 1080p от ExKinoRay 14.36 GB ↑ 0 ↓ 0
2024-04-23 magnet Горький 53 / Серии: 1-8 из 8 [2023, детектив, криминал, WEBRip-AVC] от Aleksan55 5.19 GB ↑ 0 ↓ 0

Комментарии


Зарегистрируйтесь чтобы добавить комментарий
Торрент клиент
byTorrent - программа для загрузки торрент-файлов.

Скачать byTorrent.exe (1,5 МБ)

Скачать byTorrent.zip (0,6 МБ)

Поддержи torrent.by
российских рублей
(300 российских рублей это 4$)

Обратная связь rss

End game ©