↑↓torrent.by
Поиск
Логин:  Регистрация
Пароль:

Дядя Леша [01х01-06 из 08] (2024) WEBRip-AVC от Generalfilm | КПК

download Скачать торрент-файл   magnet Магнитная ссылка Размер: 806.73 MB Добавлен: 2024-05-20 05:00
Пиры будут получены из сети DHT
Последний сидер был замечен 2024-06-18 18:09
Информация о фильме Оригинальное название: Дядя Леша Год выпуска: 2024 Жанр: Комедия, семейный Режиссер: Дмитрий Невзоров В ролях: Тимофей Трибунцев, Анна Уколова, Сергей Лавыгин, Наталья Рычкова, Елизавета Хомякова, Хетаг Хинчагов, Григорий Дудник, Алексей Симонов, Иван Купреенко, Светлана Суханова, Илья Борисов, Олег Протасов, Никита Лето, Екатерина Таланова О сериале: Дядя Леша — обычный дворник, который работает в детском доме в небольшом городе. По ночам он грабит дома состоятельных жителей, а награбленную добычу он тратит на нужды этого же детского дома. Его схема дает сбой, когда трое самых хулиганистых воспитанников случайно застают дядю Лешу «за работой». Герою ничего не остается, кроме как взять молодежь в подельники… С этого момента жизнь дяди Леши превращается в аттракцион, и ему предстоит решить гору проблем от своих новых «компаньонов», запутать расследование своих же преступлений, вернуть доверие любимой женщины, расплатиться за серьезные ошибки прошлого, а самое главное — реализовать до конца свой «план Робин Гуда». Жизнь его подельников тоже меняется — ведь благодаря этой авантюре они обретают «отеческую фигуру». Страна: Россия Студия: Кинокомпания "ЛУКФИЛЬМ / LOOKFILM", "Место силы", "МТС Медиа" Продолжительность: 6 х ~ 00:35:00 Перевод: Не требуется Файл Формат: MP4 Качество: WEBRip-AVC Видео: MPEG-4 AVC (x264), 640x360, ~ 500 kbps, 25.000 fps Аудио: AAC LC, 48.0 KHz, 2 ch, 128 Kbps Субтитры: Нет
[+] Скриншоты
[+] MIComplete name : D:киноDyadya.Lyosha.S01.2024.WEBRip-AVC.KPK.GFDyadya.Lyosha.s01e01.2024.WEBRip-AVC.KPK.GF.mp4 Format : MPEG-4 Codec ID : M4V (isom/iso2/avc1) File size : 161 MiB Duration : 35mn 27s Overall bit rate mode : Variable Overall bit rate : 634 Kbps Writing application : Lavf53.19.0 Video ID : 1 Format : AVC Format/Info : Advanced Video Codec Format profile : High@L4.1 Format settings, CABAC : Yes Format settings, ReFrames : 8 frames Codec ID : avc1 Codec ID/Info : Advanced Video Coding Duration : 35mn 27s Bit rate : 500 Kbps Width : 640 pixels Height : 360 pixels Display aspect ratio : 16:9 Frame rate mode : Constant Frame rate : 25.000 fps Color space : YUV Chroma subsampling : 4:2:0 Bit depth : 8 bits Scan type : Progressive Bits/(Pixel*Frame) : 0.087 Stream size : 127 MiB (79%) Writing library : x264 core 146 r2538 121396c Encoding settings : cabac=1 / ref=8 / deblock=1:-1:-1 / analyse=0x3:0x133 / me=umh / subme=10 / psy=1 / psy_rd=1.00:0.00 / mixed_ref=1 / me_range=24 / chroma_me=1 / trellis=2 / 8x8dct=1 / cqm=0 / deadzone=21,11 / fast_pskip=1 / chroma_qp_offset=-2 / threads=3 / lookahead_threads=1 / sliced_threads=0 / nr=0 / decimate=1 / interlaced=0 / bluray_compat=0 / constrained_intra=0 / bframes=8 / b_pyramid=2 / b_adapt=2 / b_bias=0 / direct=3 / weightb=1 / open_gop=0 / weightp=2 / keyint=250 / keyint_min=126 / scenecut=40 / intra_refresh=0 / rc_lookahead=40 / rc=2pass / mbtree=1 / bitrate=500 / ratetol=1.0 / qcomp=0.60 / qpmin=0 / qpmax=69 / qpstep=4 / cplxblur=20.0 / qblur=0.5 / ip_ratio=1.40 / aq=1:1.00 Menus : 3 Audio ID : 2 Format : AAC Format/Info : Advanced Audio Codec Format profile : LC Codec ID : 40 Duration : 35mn 27s Bit rate mode : Variable Bit rate : 128 Kbps Channel(s) : 2 channels Channel positions : Front: L R Sampling rate : 48.0 KHz Frame rate : 46.875 fps (1024 spf) Compression mode : Lossy Stream size : 32.4 MiB (20%) Default : Yes Alternate group : 1 Menus : 3
Релиз от:

Всего файлов в раздаче: 6 
Dyadya.Lyosha.s01e01.2024.WEBRip-AVC.KPK.GF.mp4160.71 MB
Dyadya.Lyosha.s01e02.2024.WEBRip-AVC.KPK.GF.mp4117.15 MB
Dyadya.Lyosha.s01e03.2024.WEBRip-AVC.KPK.GF.mp4148.26 MB
Dyadya.Lyosha.s01e04.2024.WEBRip-AVC.KPK.GF.mp4143.02 MB
Dyadya.Lyosha.s01e05.2024.WEBRip-AVC.KPK.GF.mp4117.84 MB
Dyadya.Lyosha.s01e06.2024.WEBRip-AVC.KPK.GF.mp4119.74 MB

Похожие раздачи по запросу - Дядя
2024-06-18 magnet Александр «Котобус» Горбов - Дядя самых честных правил [Книга 1] (2024) MP3 1.67 GB ↑ 0 ↓ 0
2024-05-25 magnet Дядя Леша [S01 + Фильм о фильме] (2024) WEBRip-AVC от Generalfilm | КПК 1.16 GB ↑ 0 ↓ 0
2024-05-24 magnet Дядя Леша [S01 + Фильм о фильме] (2024) WEBRip 720p от Files-x 7.38 GB ↑ 0 ↓ 0
2024-05-23 magnet Дядя Леша [S01 + Фильм о фильме] (2024) WEBRip 1080p 11.54 GB ↑ 0 ↓ 0
2024-05-23 magnet Дядя Леша [S01 + Фильм о фильме] (2024) WEBRip 3.39 GB ↑ 0 ↓ 0
2024-05-23 magnet Дядя Леша [S01 + Фильм о фильме] (2024) WEBRip-AVC от Files-x 3.28 GB ↑ 0 ↓ 0
2024-05-16 magnet Дядя Леша [01-06 из 08] (2024) WEBRip 2.30 GB ↑ 0 ↓ 0

Кто качает (только для создателя раздачи и модераторов): Локальные пиры отсутствуют

Комментарии


Зарегистрируйтесь чтобы добавить комментарий
Торрент клиент
byTorrent - программа для загрузки торрент-файлов.

Скачать byTorrent.exe (1,5 МБ)

Скачать byTorrent.zip (0,6 МБ)

Поддержи torrent.by
российских рублей
(300 российских рублей это 4$)

Обратная связь rss

End game ©