↑↓torrent.by
Поиск
Логин:  Регистрация
Пароль:

Курьер / El correo / The Courier (2024) WEB-DLRip-AVC от DoMiNo | L

download Скачать торрент-файл   magnet Магнитная ссылка Размер: 1.51 GB Добавлен: 2024-05-20 05:00
Пиры будут получены из сети DHT
Последний сидер был замечен вчера в 08:53
Информация о фильме Название: Курьер Оригинальное название: El correo / The Courier Год выпуска: 2024 Жанр: Криминал, драма, триллер Режиссер: Даниэль Кальпарсоро / Daniel Calparsoro В ролях: Арон Пайпер, Мария Педраса, Луис, Тосар, Лаура Сепул, Нурдин Батан, Хосе Мануэль Пога, Луис Заэра, Лукас Ольшевский, Альберто Джо Ли О фильме: Фильм Рассказывает о жулике и его восхождении на вершину коррупции, которая создала пузырь на рынке недвижимости после введения евро в Испании. Выпущено: Испания, Бельгия, Франция / Canal+, Instituto de la Cinematografía y de las Artes Audiovisuales (ICAA), La Compagnie Cinématographique Продолжительность: 01:42:28 Перевод: Любительский (многоголосый, закадровый) | AlphaProject Субтитры: Русские, английские Файл Формат: Matroska Качество: WEB-DLRip-AVC Видео: 1024x428 at 24.000 fps, x264@L4.1, ~1918 kbps Аудио: AC3, 2 ch, ~192 kbps - | Русский | Формат субтитров: softsub (SRT) ***Рип от: -=DoMiNo=-
[+] M/IGeneral Unique ID : 93165451515315673058344959613631284717 (0x46170366AEE238061FE481AFA2A145ED) Complete name : I:El.correo.2024.WEB-DLRip.x264..mkv Format : Matroska Format version : Version 4 File size : 1.51 GiB Duration : 1 h 42 min Overall bit rate : 2 113 kb/s Frame rate : 24.000 FPS Movie name : El.correo.2024.WEB-DLRip.x264. Encoded date : 2024-05-19 16:16:31 UTC Writing application : mkvmerge v84.0 ('Sleeper') 64-bit Writing library : libebml v1.4.5 + libmatroska v1.7.1 Cover : Yes Attachments : cover.jpg / small_cover.jpg Video ID : 1 Format : AVC Format/Info : Advanced Video Codec Format profile : High@L4.1 Format settings : CABAC / 10 Ref Frames Format settings, CABAC : Yes Format settings, Reference : 10 frames Codec ID : V_MPEG4/ISO/AVC Duration : 1 h 42 min Bit rate : 1 918 kb/s Width : 1 024 pixels Height : 428 pixels Display aspect ratio : 2.39:1 Frame rate mode : Constant Frame rate : 24.000 FPS Color space : YUV Chroma subsampling : 4:2:0 Bit depth : 8 bits Scan type : Progressive Bits/(Pixel*Frame) : 0.182 Stream size : 1.37 GiB (91%) Title : -=DoMiNo=- Writing library : x264 core 164 r3191 4613ac3 Encoding settings : cabac=1 / ref=10 / deblock=1:-2:-1 / analyse=0x3:0x133 / me=umh / subme=10 / psy=1 / psy_rd=1.00:0.00 / mixed_ref=1 / me_range=32 / chroma_me=1 / trellis=2 / 8x8dct=1 / cqm=0 / deadzone=21,11 / fast_pskip=0 / chroma_qp_offset=-2 / threads=13 / lookahead_threads=3 / sliced_threads=0 / nr=0 / decimate=1 / interlaced=0 / bluray_compat=0 / constrained_intra=0 / bframes=10 / b_pyramid=2 / b_adapt=2 / b_bias=0 / direct=3 / weightb=1 / open_gop=0 / weightp=2 / keyint=240 / keyint_min=24 / scenecut=40 / intra_refresh=0 / rc_lookahead=60 / rc=crf / mbtree=0 / crf=18.5 / qcomp=0.60 / qpmin=0 / qpmax=69 / qpstep=4 / vbv_maxrate=50000 / vbv_bufsize=62500 / crf_max=0.0 / nal_hrd=none / filler=0 / ip_ratio=1.40 / pb_ratio=1.30 / aq=3:0.90 Language : English Default : Yes Forced : No Color range : Limited Color primaries : BT.709 Transfer characteristics : BT.709 Matrix coefficients : BT.709 Audio ID : 2 Format : AC-3 Format/Info : Audio Coding 3 Commercial name : Dolby Digital Codec ID : A_AC3 Duration : 1 h 42 min Bit rate mode : Constant Bit rate : 192 kb/s Channel(s) : 2 channels Channel layout : L R Sampling rate : 48.0 kHz Frame rate : 31.250 FPS (1536 SPF) Compression mode : Lossy Stream size : 141 MiB (9%) Title : MVO - AlphaProject Language : Russian Service kind : Complete Main Default : Yes Forced : No Dialog Normalization : -31 dB dialnorm_Average : -31 dB dialnorm_Minimum : -31 dB dialnorm_Maximum : -31 dB Text #1 ID : 3 Format : UTF-8 Codec ID : S_TEXT/UTF8 Codec ID/Info : UTF-8 Plain Text Duration : 1 h 40 min Bit rate : 82 b/s Frame rate : 0.193 FPS Count of elements : 1166 Stream size : 60.8 KiB (0%) Title : Full Language : Russian Default : No Forced : No Text #2 ID : 4 Format : UTF-8 Codec ID : S_TEXT/UTF8 Codec ID/Info : UTF-8 Plain Text Duration : 1 h 36 min Bit rate : 2 b/s Frame rate : 0.010 FPS Count of elements : 60 Stream size : 1.57 KiB (0%) Title : Forced Language : English Default : No Forced : No Text #3 ID : 5 Format : UTF-8 Codec ID : S_TEXT/UTF8 Codec ID/Info : UTF-8 Plain Text Duration : 1 h 36 min Bit rate : 71 b/s Frame rate : 0.254 FPS Count of elements : 1463 Stream size : 50.6 KiB (0%) Title : SDH Language : English Default : No Forced : No Menu 00:00:00.000 : en:Chapter 1 01:36:38.000 : en:Credits

Всего файлов в раздаче: 1 
El.correo.2024.WEB-DLRip.x264.[-=DoMiNo=-].mkv1.51 GB

Похожие раздачи по запросу - Курьер
2024-05-19 magnet Курьер / El correo / The Courier (2024) WEB-DL 1080p от JNS82 | L 4.11 GB ↑ 0 ↓ 0

Комментарии


Зарегистрируйтесь чтобы добавить комментарий
Торрент клиент
byTorrent - программа для загрузки торрент-файлов.

Скачать byTorrent.exe (1,5 МБ)

Скачать byTorrent.zip (0,6 МБ)

Поддержи torrent.by
российских рублей
(300 российских рублей это 4$)

Обратная связь rss

End game ©