↑↓torrent.by
Поиск
Логин:  Регистрация
Пароль:

Марс Экспресс / Mars Express (2023) WEB-DLRip 720p от DoMiNo & селезень | P | HDRezka Studio

download Скачать торрент-файл   magnet Магнитная ссылка Размер: 1.49 GB Добавлен: 2024-05-20 17:00
Пиры будут получены из сети DHT
Последний сидер был замечен 2024-06-08 19:20
Информация о фильме Название: Марс Экспресс Оригинальное название: Mars Express Год выхода: 2023 Жанр: мультфильм, фантастика, боевик, триллер, детектив Режиссер: Жереми Перен В ролях: Леа Дрюкер, Матьё Амальрик, Дэниэл Нджо Лобе, Мари Буве, Себастьян Шассань, Марта Келлер, Женевьева Доан, Тома Родити, Тьерри Жан, Серж Фалю Описание: 2200 год, планета Марс. В центре сюжета два частных сыщика — Алин Руби и ее напарник андроид Карлос Ривьера. По заданию состоятельного клиента детективы выслеживают студентку-хакера, создавшую код для снятия всех этических ограничений с роботов. Им придется столкнуться с мозговыми фермами, коррупцией и тайнами, угрожающими изменить облик вселенной. Страна: Франция Студия: Everybody on the Deck, Je Suis Bien Content, Ev.L Prod Продолжительность: 01:28:35 Перевод: Профессиональный (многоголосый, закадровый) | HDRezka Studio Субтитры: Русские (Forced, Full), Английские Файл Формат: Matroska Качество: WEB-DLRip 720p Видео: 1280x638 at 23.976 fps, x264@L4.1, ~1828 kbps Аудио 1: AC3, 2 ch, ~192 kbps - | Русский | Аудио 2: AC3, 6 ch, ~384 kbps - | Французский | Формат субтитров: softsub (SRT) ***Рип от: -=DoMiNo=-
[+] M/Ix264 : frame I:1268 Avg QP:14.54 size: 77633 x264 : frame P:29958 Avg QP:15.75 size: 21963 x264 : frame B:96341 Avg QP:17.68 size: 4755 General Unique ID : 57833038946362848003817173399466690165 (0x2B823CF7474F86DF524B926375484675) Complete name : I:Mars.Express.2023.MVO.WEB-DLRip.720p.x264.seleZen.mkv Format : Matroska Format version : Version 4 File size : 1.49 GiB Duration : 1 h 28 min Overall bit rate : 2 406 kb/s Frame rate : 24.000 FPS Movie name : Mars.Express.2023.MVO.WEB-DLRip.720p.x264.seleZen Encoded date : 2024-05-20 11:41:06 UTC Writing application : mkvmerge v84.0 ('Sleeper') 64-bit Writing library : libebml v1.4.5 + libmatroska v1.7.1 Cover : Yes Attachments : cover.jpg / small_cover.jpg Video ID : 1 Format : AVC Format/Info : Advanced Video Codec Format profile : High@L4.1 Format settings : CABAC / 5 Ref Frames Format settings, CABAC : Yes Format settings, Reference : 5 frames Codec ID : V_MPEG4/ISO/AVC Duration : 1 h 28 min Bit rate : 1 828 kb/s Width : 1 280 pixels Height : 638 pixels Display aspect ratio : 2.006 Frame rate mode : Constant Frame rate : 24.000 FPS Color space : YUV Chroma subsampling : 4:2:0 Bit depth : 8 bits Scan type : Progressive Bits/(Pixel*Frame) : 0.093 Stream size : 1.13 GiB (76%) Title : -=DoMiNo=- Writing library : x264 core 164 r3191 4613ac3 Encoding settings : cabac=1 / ref=5 / deblock=1:-2:-1 / analyse=0x3:0x133 / me=umh / subme=10 / psy=1 / psy_rd=1.00:0.15 / mixed_ref=1 / me_range=32 / chroma_me=1 / trellis=2 / 8x8dct=1 / cqm=0 / deadzone=21,11 / fast_pskip=0 / chroma_qp_offset=-3 / threads=20 / lookahead_threads=4 / sliced_threads=0 / nr=0 / decimate=1 / interlaced=0 / bluray_compat=0 / constrained_intra=0 / bframes=10 / b_pyramid=2 / b_adapt=2 / b_bias=0 / direct=3 / weightb=1 / open_gop=0 / weightp=2 / keyint=240 / keyint_min=24 / scenecut=40 / intra_refresh=0 / rc_lookahead=60 / rc=crf / mbtree=0 / crf=19.0 / qcomp=0.60 / qpmin=0 / qpmax=69 / qpstep=4 / vbv_maxrate=50000 / vbv_bufsize=62500 / crf_max=0.0 / nal_hrd=none / filler=0 / ip_ratio=1.40 / pb_ratio=1.30 / aq=1:0.90 Language : English Default : Yes Forced : No Color range : Limited Color primaries : BT.709 Transfer characteristics : BT.709 Matrix coefficients : BT.709 Audio #1 ID : 2 Format : AC-3 Format/Info : Audio Coding 3 Commercial name : Dolby Digital Codec ID : A_AC3 Duration : 1 h 28 min Bit rate mode : Constant Bit rate : 192 kb/s Channel(s) : 2 channels Channel layout : L R Sampling rate : 48.0 kHz Frame rate : 31.250 FPS (1536 SPF) Compression mode : Lossy Stream size : 122 MiB (8%) Title : MVO -HDRezka Studio Language : Russian Service kind : Complete Main Default : Yes Forced : No Dialog Normalization : -31 dB dialnorm_Average : -31 dB dialnorm_Minimum : -31 dB dialnorm_Maximum : -31 dB Audio #2 ID : 3 Format : AC-3 Format/Info : Audio Coding 3 Commercial name : Dolby Digital Codec ID : A_AC3 Duration : 1 h 28 min Bit rate mode : Constant Bit rate : 384 kb/s Channel(s) : 6 channels Channel layout : L R C LFE Ls Rs Sampling rate : 48.0 kHz Frame rate : 31.250 FPS (1536 SPF) Compression mode : Lossy Stream size : 243 MiB (16%) Title : Original Language : French (FR) Service kind : Complete Main Default : No Forced : No Dialog Normalization : -29 dB compr : -0.28 dB cmixlev : -3.0 dB surmixlev : -3 dB ltrtcmixlev : -3.0 dB ltrtsurmixlev : -3.0 dB lorocmixlev : -3.0 dB lorosurmixlev : -3.0 dB dialnorm_Average : -29 dB dialnorm_Minimum : -29 dB dialnorm_Maximum : -29 dB Text #1 ID : 4 Format : UTF-8 Codec ID : S_TEXT/UTF8 Codec ID/Info : UTF-8 Plain Text Duration : 50 min 45 s Bit rate : 0 b/s Frame rate : 0.001 FPS Count of elements : 3 Stream size : 128 Bytes (0%) Title : Forced Language : Russian Default : No Forced : No Text #2 ID : 5 Format : UTF-8 Codec ID : S_TEXT/UTF8 Codec ID/Info : UTF-8 Plain Text Duration : 1 h 20 min Bit rate : 87 b/s Frame rate : 0.201 FPS Count of elements : 973 Stream size : 51.6 KiB (0%) Title : Full Language : Russian Default : No Forced : No Text #3 ID : 6 Format : UTF-8 Codec ID : S_TEXT/UTF8 Codec ID/Info : UTF-8 Plain Text Duration : 1 h 20 min Bit rate : 48 b/s Frame rate : 0.200 FPS Count of elements : 971 Stream size : 29.0 KiB (0%) Title : Full Language : English Default : No Forced : No Menu 00:00:00.000 : en:Chapter 01 00:05:50.000 : en:Chapter 02 00:11:40.000 : en:Chapter 03 00:17:30.000 : en:Chapter 04 00:23:20.000 : en:Chapter 05 00:29:10.000 : en:Chapter 06 00:35:00.000 : en:Chapter 07 00:40:50.000 : en:Chapter 08 00:46:40.000 : en:Chapter 09 00:52:30.000 : en:Chapter 10 00:58:20.000 : en:Chapter 11 01:04:10.000 : en:Chapter 12 01:10:00.000 : en:Chapter 13 01:15:50.000 : en:Chapter 14 01:21:40.000 : en:Chapter 15 01:27:30.000 : en:Chapter 16
Релиз: Присоединяйся к: Кликай на баннеры.

Всего файлов в раздаче: 1 
Mars.Express.2023.MVO.WEB-DLRip.720p.x264.seleZen.mkv1.49 GB

Похожие раздачи по запросу - Марс
2024-06-07 magnet Марс Экспресс / Mars Express (2023) BDRemux 1080p от EniaHD | D, P, L 18.22 GB ↑ 0 ↓ 2
2024-06-05 magnet Марс Экспресс / Mars Express (2023) BDRip 1080p от селезень | D 5.10 GB ↑ 0 ↓ 0
2024-06-05 magnet Марс Экспресс / Mars Express (2023) BDRip 720p от DoMiNo & селезень | D, P 2.36 GB ↑ 0 ↓ 0
2024-06-05 magnet Марс Экспресс / Mars Express (2023) BDRip от MegaPeer | D 1.46 GB ↑ 0 ↓ 0
2024-06-05 magnet Марс Экспресс / Mars Express (2023) BDRip 720p от DoMiNo & селезень | P | HDRezka Studio, NewStation 1.96 GB ↑ 0 ↓ 0
2024-06-04 magnet Марс Экспресс / Mars Express (2023) BDRip 1080p от ExKinoRay | P 6.23 GB ↑ 0 ↓ 0
2024-05-22 magnet Марс Экспресс / Mars Express (2023) WEB-DLRip-AVC | КПК | P | HDrezka Studio 422.64 MB ↑ 0 ↓ 0

Кто качает (только для создателя раздачи и модераторов): Локальные пиры отсутствуют

Комментарии


Зарегистрируйтесь чтобы добавить комментарий
Торрент клиент
byTorrent - программа для загрузки торрент-файлов.

Скачать byTorrent.exe (1,5 МБ)

Скачать byTorrent.zip (0,6 МБ)

Поддержи torrent.by
российских рублей
(300 российских рублей это 4$)

Обратная связь rss

End game ©