↑↓torrent.by
Поиск
Логин:  Регистрация
Пароль:

Одна жизнь / One Life (2023) BDRip 720p от DoMiNo & селезень | D

download Скачать торрент-файл   magnet Магнитная ссылка Размер: 4.71 GB Добавлен: 2024-05-20 17:00
Пиры будут получены из сети DHT
Последний сидер был замечен 2024-06-02 15:03
Информация о фильме Название: Одна жизнь Оригинальное название: One Life Год выхода: 2023 Жанр: драма, биография, история Режиссер: Джеймс Хоуз В ролях: Энтони Хопкинс, Хелена Бонем Картер, Джонни Флинн, Лена Олин, Тим Стид, Матильда Торпе, Дэниэл Браун, Алекс Шарп, Иржи Симек, Ромола Гарай О фильме: Скромного и непубличного джентльмена Николаса Уинтона приглашают на телевизионное ток-шоу, где он наконец-то узнает всю правду о событиях Второй мировой войны, когда он пытался спасти сотни детей от гибели в концлагере. Одна жизнь может изменить судьбы сотен людей - как в прошлом, так и в настоящем. Страна: Великобритания Студия: BBC Films, MBK Productions, See-Saw Films Продолжительность: 01:49:01 Перевод: Дублированный | Paragraph Media Субтитры: Русские (Forced, full), английские Файл Формат: Matroska Качество: BDRip 720p | Исх.One.Life.2023.1080p.Blu-ray.Remux.AVC.DTS-HD.MA.5.1-CiNEPHiLES Видео: 1280x582 at 24.000 fps, x264@L4.1, ~4648 kbps Аудио 1: AC3, 6 ch, ~448 kbps - | Русский | | Paragraph Media Аудио 2: E-AC3, 6 ch, ~448 kbps - | Русский | | Paragraph Media Аудио 3: AC3, 6 ch, ~640 kbps - | Английский | | Original Формат субтитров: softsub (SRT) ***Рип от: -=DoMiNo=-
[+] M/Ix264 : frame I:1126 Avg QP:15.02 size: 97012 x264 : frame P:29484 Avg QP:16.58 size: 50192 x264 : frame B:126381 Avg QP:18.30 size: 17499 General Unique ID : 207520927582186212853588957406809908697 (0x9C1F13AC8E7D49B4BD858EB9637165D9) Complete name : T:One.Life.2023.DUB.BDRip.720p.x264.seleZen.mkv Format : Matroska Format version : Version 4 File size : 4.71 GiB Duration : 1 h 49 min Overall bit rate : 6 177 kb/s Frame rate : 24.000 FPS Movie name : One.Life.2023.DUB.BDRip.720p.x264.seleZen Encoded date : 2024-05-20 09:53:14 UTC Writing application : mkvmerge v84.0 ('Sleeper') 64-bit Writing library : libebml v1.4.5 + libmatroska v1.7.1 Cover : Yes Attachments : cover.jpg / small_cover.jpg Video ID : 1 Format : AVC Format/Info : Advanced Video Codec Format profile : High@L4.1 Format settings : CABAC / 11 Ref Frames Format settings, CABAC : Yes Format settings, Reference : 11 frames Codec ID : V_MPEG4/ISO/AVC Duration : 1 h 49 min Bit rate : 4 648 kb/s Width : 1 280 pixels Height : 582 pixels Display aspect ratio : 2.2:1 Frame rate mode : Constant Frame rate : 24.000 FPS Color space : YUV Chroma subsampling : 4:2:0 Bit depth : 8 bits Scan type : Progressive Bits/(Pixel*Frame) : 0.260 Stream size : 3.54 GiB (75%) Title : -=DoMiNo=- Writing library : x264 core 164 r3191 4613ac3 Encoding settings : cabac=1 / ref=11 / deblock=1:-2:-2 / analyse=0x3:0x133 / me=umh / subme=10 / psy=1 / psy_rd=1.05:0.05 / mixed_ref=1 / me_range=32 / chroma_me=1 / trellis=2 / 8x8dct=1 / cqm=0 / deadzone=21,11 / fast_pskip=0 / chroma_qp_offset=-3 / threads=18 / lookahead_threads=4 / sliced_threads=0 / nr=0 / decimate=1 / interlaced=0 / bluray_compat=0 / constrained_intra=0 / bframes=12 / b_pyramid=2 / b_adapt=2 / b_bias=0 / direct=3 / weightb=1 / open_gop=0 / weightp=2 / keyint=240 / keyint_min=24 / scenecut=40 / intra_refresh=0 / rc_lookahead=60 / rc=crf / mbtree=0 / crf=18.0 / qcomp=0.60 / qpmin=0 / qpmax=69 / qpstep=4 / vbv_maxrate=50000 / vbv_bufsize=62500 / crf_max=0.0 / nal_hrd=none / filler=0 / ip_ratio=1.37 / pb_ratio=1.30 / aq=3:0.80 Language : English Default : Yes Forced : No Color range : Limited Color primaries : BT.709 Transfer characteristics : BT.709 Matrix coefficients : BT.709 Audio #1 ID : 2 Format : AC-3 Format/Info : Audio Coding 3 Commercial name : Dolby Digital Codec ID : A_AC3 Duration : 1 h 49 min Bit rate mode : Constant Bit rate : 448 kb/s Channel(s) : 6 channels Channel layout : L R C LFE Ls Rs Sampling rate : 48.0 kHz Frame rate : 31.250 FPS (1536 SPF) Compression mode : Lossy Stream size : 349 MiB (7%) Title : Dub Language : Russian Service kind : Complete Main Default : Yes Forced : No Dialog Normalization : -28 dB compr : -0.28 dB cmixlev : -3.0 dB surmixlev : -3 dB mixlevel : 285 dB roomtyp : 3 ltrtcmixlev : -3.0 dB ltrtsurmixlev : -3.0 dB lorocmixlev : -3.0 dB lorosurmixlev : -4.5 dB dialnorm_Average : -28 dB dialnorm_Minimum : -28 dB dialnorm_Maximum : -28 dB Audio #2 ID : 3 Format : E-AC-3 Format/Info : Enhanced AC-3 Commercial name : Dolby Digital Plus Codec ID : A_EAC3 Duration : 1 h 49 min Bit rate mode : Constant Bit rate : 448 kb/s Channel(s) : 6 channels Channel layout : L R C LFE Ls Rs Sampling rate : 48.0 kHz Frame rate : 31.250 FPS (1536 SPF) Compression mode : Lossy Stream size : 349 MiB (7%) Title : Dub Language : Russian Service kind : Complete Main Default : No Forced : No Dialog Normalization : -31 dB dialnorm_Average : -31 dB dialnorm_Minimum : -31 dB dialnorm_Maximum : -31 dB Audio #3 ID : 4 Format : AC-3 Format/Info : Audio Coding 3 Commercial name : Dolby Digital Codec ID : A_AC3 Duration : 1 h 49 min Bit rate mode : Constant Bit rate : 640 kb/s Channel(s) : 6 channels Channel layout : L R C LFE Ls Rs Sampling rate : 48.0 kHz Frame rate : 31.250 FPS (1536 SPF) Compression mode : Lossy Stream size : 500 MiB (10%) Title : Original Language : English Service kind : Complete Main Default : No Forced : No Dialog Normalization : -31 dB cmixlev : -4.5 dB surmixlev : -6 dB dialnorm_Average : -31 dB dialnorm_Minimum : -31 dB dialnorm_Maximum : -31 dB Text #1 ID : 5 Format : UTF-8 Codec ID : S_TEXT/UTF8 Codec ID/Info : UTF-8 Plain Text Duration : 1 h 46 min Bit rate : 6 b/s Frame rate : 0.014 FPS Count of elements : 89 Stream size : 4.89 KiB (0%) Title : Forced Language : Russian Default : No Forced : No Text #2 ID : 6 Format : UTF-8 Codec ID : S_TEXT/UTF8 Codec ID/Info : UTF-8 Plain Text Duration : 1 h 48 min Bit rate : 92 b/s Frame rate : 0.194 FPS Count of elements : 1258 Stream size : 73.3 KiB (0%) Title : Full Language : Russian Default : No Forced : No Text #3 ID : 7 Format : UTF-8 Codec ID : S_TEXT/UTF8 Codec ID/Info : UTF-8 Plain Text Duration : 1 h 5 min Bit rate : 1 b/s Frame rate : 0.006 FPS Count of elements : 25 Stream size : 651 Bytes (0%) Title : Forced Language : English Default : No Forced : No Text #4 ID : 8 Format : UTF-8 Codec ID : S_TEXT/UTF8 Codec ID/Info : UTF-8 Plain Text Duration : 1 h 37 min Bit rate : 60 b/s Frame rate : 0.246 FPS Count of elements : 1432 Stream size : 42.7 KiB (0%) Title : Full Language : English Default : No Forced : No Text #5 ID : 9 Format : UTF-8 Codec ID : S_TEXT/UTF8 Codec ID/Info : UTF-8 Plain Text Duration : 1 h 47 min Bit rate : 65 b/s Frame rate : 0.264 FPS Count of elements : 1706 Stream size : 51.6 KiB (0%) Title : SDH Language : English Default : No Forced : No Menu 00:00:00.000 : en:Chapter 01 00:14:39.541 : en:Chapter 02 00:30:15.583 : en:Chapter 03 00:45:29.291 : en:Chapter 04 01:00:30.916 : en:Chapter 05 01:14:03.166 : en:Chapter 06 01:29:29.208 : en:Chapter 07 01:41:47.083 : en:Chapter 08
Релиз: Присоединяйся к: Кликай на баннеры.

Всего файлов в раздаче: 1 
One.Life.2023.DUB.BDRip.720p.x264.seleZen.mkv4.71 GB

Похожие раздачи по запросу - Одна
2024-06-03 magnet Одна жизнь / One Life (2023) HDRip-AVC | КПК | D, L2 700.07 MB ↑ 0 ↓ 0
2024-06-01 magnet Одна ночь [S01] (2023) WEBRip от Generalfilm | КПК 333.21 MB ↑ 0 ↓ 0
2024-05-26 magnet Боб Марли: Одна любовь / Bob Marley: One Love (2024) BDRip от MegaPeer | P 1.46 GB ↑ 0 ↓ 0
2024-05-25 magnet Одна жизнь / One Life (2023) BDRip 1080p от Generalfilm | D 10.24 GB ↑ 0 ↓ 0
2024-05-20 magnet Одна жизнь / One Life (2023) BDRemux 1080p от селезень | D 26.17 GB ↑ 0 ↓ 0
2024-05-20 magnet Одна жизнь / One Life (2023) BDRip 1080p от селезень | D 14.13 GB ↑ 0 ↓ 0
2024-05-09 magnet Одна жизнь / One Life (2023) WEB-DL 1080p от EniaHD | D 4.93 GB ↑ 1 ↓ 1

Комментарии


Зарегистрируйтесь чтобы добавить комментарий
Торрент клиент
byTorrent - программа для загрузки торрент-файлов.

Скачать byTorrent.exe (1,5 МБ)

Скачать byTorrent.zip (0,6 МБ)

Поддержи torrent.by
российских рублей
(300 российских рублей это 4$)

Обратная связь rss

End game ©