↑↓torrent.by
Поиск
Логин:  Регистрация
Пароль:

Rapsody - Please Don't Cry [24-bit Hi-Res] (2024) FLAC

download Скачать торрент-файл   magnet Магнитная ссылка Размер: 713.64 MB Добавлен: 2024-05-21 05:00
Пиры будут получены из сети DHT
Последний сидер был замечен 2024-05-21 16:37
Название: Please Don't Cry Исполнитель: Rapsody Год: 2024 Жанр: Hip-Hop, Rap Издатель (лейбл): We Each Other, Inc., Jamla Records, under exclusive license to Roc Nation Records, LLC Продолжительность: 01:05:03 Формат/Кодек: FLAC Тип рипа: Tracks Битрейт аудио: Lossless Разрядность: 24 Bit/44,1 kHz
[+] Трек-лист 01. She’s Expecting You (00:01:09) 02. Marlanna (00:02:33) 03. Asteroids (00:02:35) 04. Look What You’ve Done (00:04:19) 05. Dnd (It’s Not Personal) (00:02:36) 06. Black Popstar (00:02:39) 07. Stand Tall (00:02:09) 08. That One Time (00:03:14) 09. 3:am (00:03:34) 10. Loose Rocks (00:04:02) 11. Diary Of A Mad Bitch (00:03:24) 12. Never Enough (00:03:52) 13. He Shot Me (00:03:09) 14. God’s Light (00:02:39) 15. Back In My Bag (00:03:01) 16. Niko’s Interlude (00:01:05) 17. Raw (00:02:45) 18. Lonely Women (00:01:43) 19. A Ballad For Homegirls (00:04:22) 20. Please Don’t Cry Interlude (00:02:02) 21. Faith (00:03:36) 22. Forget Me Not (00:04:35)
[+] DRM foobar2000 1.5.5 / Замер динамического диапазона (DR) 1.1.1 ------------------------------------------------------------------------------- Анализ: Rapsody / Please Don't Cry -------------------------------------------------------------------------------- DR Пики RMS Продолжительность трека -------------------------------------------------------------------------------- DR14 -0.21 дБ -19.41 дБ 1:09 01-She’s Expecting You DR4 -0.21 дБ -7.28 дБ 2:33 02-Marlanna DR4 -0.21 дБ -5.00 дБ 2:35 03-Asteroids DR5 -0.21 дБ -7.06 дБ 4:19 04-Look What You’ve Done DR6 -0.21 дБ -7.29 дБ 2:36 05-Dnd (It’s Not Personal) DR4 -0.21 дБ -6.74 дБ 2:39 06-Black Popstar DR5 -0.21 дБ -6.42 дБ 2:09 07-Stand Tall DR4 -0.21 дБ -5.49 дБ 3:14 08-That One Time DR5 -0.21 дБ -8.22 дБ 3:34 09-3:am DR5 -0.21 дБ -8.11 дБ 4:02 10-Loose Rocks DR4 -0.21 дБ -6.04 дБ 3:24 11-Diary Of A Mad Bitch DR4 -0.21 дБ -6.12 дБ 3:52 12-Never Enough DR5 -0.21 дБ -8.02 дБ 3:09 13-He Shot Me DR5 -0.21 дБ -7.02 дБ 2:39 14-God’s Light DR3 -0.21 дБ -5.45 дБ 3:01 15-Back In My Bag DR5 -0.21 дБ -5.99 дБ 1:05 16-Niko’s Interlude DR4 -0.21 дБ -6.47 дБ 2:45 17-Raw DR5 -0.21 дБ -7.03 дБ 1:43 18-Lonely Women DR4 -0.21 дБ -5.44 дБ 4:22 19-A Ballad For Homegirls DR10 -0.21 дБ -13.05 дБ 2:02 20-Please Don’t Cry Interlude DR5 -0.21 дБ -6.97 дБ 3:36 21-Faith DR5 -0.21 дБ -9.93 дБ 4:35 22-Forget Me Not -------------------------------------------------------------------------------- Количество треков: 22 Реальные значения DR: DR5 Частота: 44100 Гц Каналов: 2 Разрядность: 24 Битрейт: 1438 кбит/с Кодек: FLAC ================================================================================
Время раздачи: 24/7 (минимум до появления первых 3-5 скачавших, на раздачи не возвращаюсь) Первое правило участника файлообмена: "Скачал сам - дай скачать другому!"

Всего файлов в раздаче: 23 
01. She’s Expecting You.flac11.64 MB
02. Marlanna.flac26.19 MB
03. Asteroids.flac28.69 MB
04. Look What You’ve Done.flac50.31 MB
05. DND (It’s Not Personal).flac28.81 MB
06. Black Popstar.flac27.64 MB
07. Stand Tall.flac24.52 MB
08. That One Time.flac36.74 MB
09. 3AM.flac39.68 MB
10. Loose Rocks.flac40.15 MB
Показать все файлы

Похожие раздачи по запросу - Rapsody
2024-05-20 magnet Rapsody - Please Don't Cry (2024) MP3 150.19 MB ↑ 0 ↓ 0
2024-05-19 magnet Rapsody - Please Don't Cry [24Bit, Hi-Res] (2024) FLAC 715.25 MB ↑ 0 ↓ 0
2024-05-19 magnet Rapsody - Please Don't Cry (2024) MP3 158.08 MB ↑ 0 ↓ 0

Комментарии


Зарегистрируйтесь чтобы добавить комментарий
Торрент клиент
byTorrent - программа для загрузки торрент-файлов.

Скачать byTorrent.exe (1,5 МБ)

Скачать byTorrent.zip (0,6 МБ)

Поддержи torrent.by
российских рублей
(300 российских рублей это 4$)

Обратная связь rss

End game ©