↑↓torrent.by
Поиск
Логин:  Регистрация
Пароль:

Амнезия / The Blackout (1997) WEB-DL 1080p | P, A

download Скачать торрент-файл   magnet Магнитная ссылка Размер: 5.96 GB Добавлен: 2024-05-21 05:00
Пиры будут получены из сети DHT
Последний сидер был замечен 2024-05-21 05:00
Информация о фильме Название: Амнезия Оригинальное название: The Blackout Год выхода: 1997 Жанр: Триллер, детектив Режиссер: Абель Феррара В ролях: Мэттью Модайн, Клаудия Шиффер, Беатрис Даль, Сара Лассез, Деннис Хоппер, Стивен Бауэр, Лаура Бэйли, Нэнси Феррара, Эндрю Фисцелла, Винсент Ламберти, Виктория Даффи, Николас Де Сельи О фильме: Преуспевающий актер начинает подозревать себя в совершенном убийстве. Его преследуют навязчивые картины… Возможно, что потеря памяти была естественной реакцией опаленного содеянным разума. Возможно, что часть воспоминаний была потеряна из-за чрезмерного увлечения алкоголем и наркотиками. Но возможно, что подозрение может быть страшнее ожиданий. Стоит ли восстанавливать потерянное? Страна: США, Франция Студия: Cipa, Les Films Number One, MDP Worldwide Продолжительность: 01:29:45 Перевод: Профессиональный многоголосый, авторский Файл Формат: MKV Качество: WEB-DL 1080p Видео: 1920x1040 (1.85:1), 25.000 fps, AVC, 8888 Kbps Аудио 1: Russian: 48.0 KHz, AC3, 2.0 ch, ~ 192 Kbps | MVO, ТВЦ Аудио 2: Russian: 48.0 KHz, AC3, 2.0 ch, ~ 192 Kbps | AVO, Карцев Аудио 3: English: 48.0 KHz, E-AC3, 2 ch, ~ 224 Kbps | Original Субтитры: Английские, французские, испанские, португальские
[+] Скриншоты
[+] Инфо-файлОбщее Уникальный идентификатор : 205588060057277284217588132243089173350 (0x9AAAD1F28CF7440E96A4A552708CAB66) Полное имя : The.Blackout.1997.WEB-DL.1080p.mkv Формат : Matroska Версия формата : Version 4 Размер файла : 5,96 Гбайт Продолжительность : 1 ч. 29 м. Общий поток : 9502 Кбит/сек Название фильма : The.Blackout.1997.WEB-DL.1080p_AllFilms_teko Дата кодирования : UTC 2024-01-21 10:35:16 Программа кодирования : mkvmerge v9.5.0 ('Quiet Fire') 64bit Библиотека кодирования : libebml v1.3.4 + libmatroska v1.4.5 Обложка : Yes Attachments : Black.Out.2007.Постер.jpg Видео Идентификатор : 1 Формат : AVC Формат/Информация : Advanced Video Codec Профиль формата : High@L4 Настройки формата : CABAC / 4 Ref Frames Параметр CABAC формата : Да Параметр RefFrames формата : 4 кадра Идентификатор кодека : V_MPEG4/ISO/AVC Продолжительность : 1 ч. 29 м. Вид битрейта : Постоянный Битрейт : 8888 Кбит/сек Номинальный битрейт : 10000 Кбит/сек Ширина : 1920 пикселей Высота : 1040 пикселей Соотношение сторон : 1,85:1 Режим частоты кадров : Постоянный Частота кадров : 25,000 кадров/сек Цветовое пространство : YUV Субдискретизация насыщенности : 4:2:0 Битовая глубина : 8 бит Тип развёртки : Прогрессивная Бит/(Пиксели*Кадры) : 0.178 Размер потока : 5,57 Гбайт (94%) Заголовок : The.Blackout.1997.WEB-DL.1080p Язык : English Default : Да Forced : Нет Цветовой диапазон : Limited Основные цвета : BT.709 Характеристики трансфера : BT.709 Коэффициенты матрицы : BT.709 Аудио #1 Идентификатор : 2 Формат : AC-3 Формат/Информация : Audio Coding 3 Коммерческое название : Dolby Digital Идентификатор кодека : A_AC3 Продолжительность : 1 ч. 29 м. Вид битрейта : Постоянный Битрейт : 192 Кбит/сек Каналы : 2 канала ChannelLayout : L R Частота : 48,0 КГц Частота кадров : 31,250 кадров/сек (1536 SPF) Метод сжатия : С потерями Размер потока : 123 Мбайт (2%) Заголовок : MVO ТВЦ Язык : Russian Default : Да Forced : Нет Аудио #2 Идентификатор : 3 Формат : AC-3 Формат/Информация : Audio Coding 3 Коммерческое название : Dolby Digital Идентификатор кодека : A_AC3 Продолжительность : 1 ч. 29 м. Вид битрейта : Постоянный Битрейт : 192 Кбит/сек Каналы : 2 канала ChannelLayout : L R Частота : 48,0 КГц Частота кадров : 31,250 кадров/сек (1536 SPF) Метод сжатия : С потерями Размер потока : 123 Мбайт (2%) Заголовок : AVO Пётр Карцев Язык : Russian Default : Нет Forced : Нет Аудио #3 Идентификатор : 4 Формат : E-AC-3 Формат/Информация : Enhanced AC-3 Коммерческое название : Dolby Digital Plus Идентификатор кодека : A_EAC3 Продолжительность : 1 ч. 29 м. Вид битрейта : Постоянный Битрейт : 224 Кбит/сек Каналы : 2 канала ChannelLayout : L R Частота : 48,0 КГц Частота кадров : 31,250 кадров/сек (1536 SPF) Метод сжатия : С потерями Размер потока : 144 Мбайт (2%) Заголовок : Original Язык : English Default : Нет Forced : Нет Текст #1 Идентификатор : 5 Формат : UTF-8 Идентификатор кодека : S_TEXT/UTF8 Идентификатор кодека/Информация : UTF-8 Plain Text Продолжительность : 1 ч. 26 м. Битрейт : 56 бит/сек ElementCount : 992 Размер потока : 35,6 Кбайт (0%) Заголовок : English Язык : English Default : Нет Forced : Нет Текст #2 Идентификатор : 6 Формат : UTF-8 Идентификатор кодека : S_TEXT/UTF8 Идентификатор кодека/Информация : UTF-8 Plain Text Продолжительность : 1 ч. 29 м. Битрейт : 33 бит/сек ElementCount : 779 Размер потока : 22,3 Кбайт (0%) Заголовок : French Язык : French Default : Нет Forced : Нет Текст #3 Идентификатор : 7 Формат : UTF-8 Идентификатор кодека : S_TEXT/UTF8 Идентификатор кодека/Информация : UTF-8 Plain Text Продолжительность : 1 ч. 26 м. Битрейт : 49 бит/сек ElementCount : 959 Размер потока : 31,2 Кбайт (0%) Заголовок : Spanish Язык : Spanish Default : Нет Forced : Нет Текст #4 Идентификатор : 8 Формат : UTF-8 Идентификатор кодека : S_TEXT/UTF8 Идентификатор кодека/Информация : UTF-8 Plain Text Продолжительность : 1 ч. 26 м. Битрейт : 58 бит/сек ElementCount : 974 Размер потока : 36,6 Кбайт (0%) Заголовок : Portuguese Brazilian Язык : Portuguese Default : Нет Forced : Нет

Всего файлов в раздаче: 1 
The.Blackout.1997.WEB-DL.1080p.mkv5.96 GB

Кто качает (только для создателя раздачи и модераторов): Локальные пиры отсутствуют

Комментарии


Зарегистрируйтесь чтобы добавить комментарий
Торрент клиент
byTorrent - программа для загрузки торрент-файлов.

Скачать byTorrent.exe (1,5 МБ)

Скачать byTorrent.zip (0,6 МБ)

Поддержи torrent.by
российских рублей
(300 российских рублей это 4$)

Обратная связь rss

End game ©