↑↓torrent.by
Поиск
Логин:  Регистрация
Пароль:

Черная вдова. Укус смерти / Sting (2024) WEB-DLRip от ExKinoRay | P

download Скачать торрент-файл   magnet Магнитная ссылка Размер: 740.29 MB Добавлен: 2024-05-21 05:00
Пиры будут получены из сети DHT
Последний сидер был замечен 2024-05-23 20:37
Информация о фильме Название: Черная вдова. Укус смерти Оригинальное название: Sting Год выхода: 2024 Жанр: ужасы Режиссер: Кия Роуч-Тернер В ролях: Жермен Фаулер, Райан Корр, Алила Браун, Нони Хейзлхерст, Робин Невин, Пенелопа Митчелл, Дэнни Ким, Сильвия Коллока, Тони Джей Блэк, Роулэнд Холмс О фильме: Юная проказница Шарлотта залезла через вентиляцию в квартиру двоюродной бабки (по совместительству владелицы дома, где живёт девочка и её семья), чтобы стащить коллекционную куклу, но обнаружила там странного паука. Она нарекает его Жалом, сажает в банку и в тайне ото всех начинает кормить тараканами. И Шарлотту совершенно не смущает, что её питомец умеет имитировать звуки, обладает высоким интеллектом и растёт с невообразимой скоростью. Страна: Австралия, США Студия: Align, Pictures in Paradise, See Pictures Продолжительность: 01:31:33 Перевод: Профессиональный многоголосый - HDRezka Studio Файл Кодек: XviD Качество: WEB-DLRip Видео: 624x336 (1.85:1), 24 fps, XviD build 67 ~990 kbps avg, 0.20 bit/pixel Звук: 48 kHz, MP3, 2 ch, ~128 kbps avg Субтитры: Отсутствуют
[+] MediaInfoGeneral Complete name : D:Черная вдова. Укус смерти(Sting).2024.WEB-DLRip..ExKinoRay.avi Format : AVI Format/Info : Audio Video Interleave Format settings : BitmapInfoHeader / WaveFormatEx File size : 740 MiB Duration : 1 h 31 min Overall bit rate : 1 130 kb/s Frame rate : 24.000 FPS Movie name : Sting.2024.WEB-DLRip..ExKinoRay Writing application : Lavf58.29.100 Video ID : 0 Format : MPEG-4 Visual Format profile : Advanced Simple@L5 Format settings : BVOP1 / Custom Matrix Format settings, BVOP : 1 Format settings, QPel : No Format settings, GMC : No warppoints Format settings, Matrix : Custom Codec ID : XVID Codec ID/Hint : XviD Duration : 1 h 31 min Bit rate : 990 kb/s Width : 624 pixels Height : 336 pixels Display aspect ratio : 1.85:1 Frame rate : 24.000 FPS Color space : YUV Chroma subsampling : 4:2:0 Bit depth : 8 bits Scan type : Progressive Compression mode : Lossy Bits/(Pixel*Frame) : 0.197 Stream size : 648 MiB (88%) Writing library : XviD 67 Audio ID : 1 Format : MPEG Audio Format version : Version 1 Format profile : Layer 3 Format settings : Joint stereo / MS Stereo Codec ID : 55 Codec ID/Hint : MP3 Duration : 1 h 31 min Bit rate mode : Constant Bit rate : 128 kb/s Channel(s) : 2 channels Sampling rate : 48.0 kHz Compression mode : Lossy Stream size : 83.8 MiB (11%) Alignment : Aligned on interleaves Interleave, duration : 24 ms (0.58 video frame)
[+] Скриншоты
Релиз от: Рип изготовил:

Всего файлов в раздаче: 1 
Черная вдова. Укус смерти(Sting).2024.WEB-DLRip..ExKinoRay.avi740.29 MB

Похожие раздачи по запросу - Черная
2024-06-03 magnet Владимир Высоцкий, Леонид Мончинский - Чёрная свеча (1992) DjVu 11.48 MB ↑ 0 ↓ 0
2024-05-19 magnet Черная вдова. Укус смерти / Sting (2024) WEB-DLRip от MegaPeer | P | HDRezka Studio 1.46 GB ↑ 0 ↓ 0
2024-05-17 magnet Орхан Памук - Чёрная книга (2022) MP3 731.27 MB ↑ 0 ↓ 0
2024-05-17 magnet Черная вдова. Укус смерти / Sting (2024) WEB-DLRip-AVC от New-Team | P | HDRezka Studio 1.65 GB ↑ 0 ↓ 0
2024-05-17 magnet Черная вдова. Укус смерти / Sting (2024) WEB-DL 1080p от New-Team | P | HDRezka Studio 6.21 GB ↑ 1 ↓ 0
2024-05-17 magnet Черная вдова. Укус смерти / Sting (2024) WEB-DL 720p от селезень | P | HDRezka Studio 3.30 GB ↑ 0 ↓ 0
2024-05-15 magnet Черная вдова. Укус смерти / Sting (2024) WEB-DLRip-AVC от JNS82 | D | TS 1.65 GB ↑ 0 ↓ 0

Комментарии


Зарегистрируйтесь чтобы добавить комментарий
Торрент клиент
byTorrent - программа для загрузки торрент-файлов.

Скачать byTorrent.exe (1,5 МБ)

Скачать byTorrent.zip (0,6 МБ)

Поддержи torrent.by
российских рублей
(300 российских рублей это 4$)

Обратная связь rss

End game ©