↑↓torrent.by
Поиск
Логин:  Регистрация
Пароль:

Артур, ты король / Arthur the King (2024) BDRip-AVC от New-Team | D, L

download Скачать торрент-файл   magnet Магнитная ссылка Размер: 2.18 GB Добавлен: 2024-05-21 05:00
Пиры будут получены из сети DHT
Последний сидер был замечен сегодня в 07:59
Артур, ты король / Arthur the King Год выпуска: 2024 Выпущено: США / Lionsgate, Tooley Productions Жанр: драма, приключения Режиссер: Саймон Селлан Джонс / Simon Cellan Jones В ролях: Марк Уолберг, Симу Лю, Джульет Райлэнс, Натали Эммануэль, Али Сулиман, Беар Гриллс, Пол Гилфойл, Роб Коллинз, Карлтон Бёрд, Сиси Валентина О фильме: Это было последнее соревнование капитана по приключенческим гонкам Майкла Линднорда, он был полон решимости ничему не позволить встать у него на пути. Собрав первоклассную команду, он не мог и представить, что в 700-километровом забеге у них появится неожиданный попутчик - пес по кличке Артур, встреча с которым изменит не только исход гонки, но и их жизнь. Продолжительность: 01:47:04 Перевод (ы): #1: Профессиональный (полное дублирование) | Мосфильм-Мастер #2: Любительский (многоголосый, закадровый) | Soundmasters Субтитры: Русские (forced, full (by Enigma)), английские Раздача от: Автор релиза: JNS82. Формат: MKV Качество: BDRip-AVC Видео: MPEG-4 AVC, 1024x426, 2019 Кбит/с, (2,40:1), 23,976 fps Аудио #1: 48 kHz, AC3 Dolby Digital, 3/2 (L,C,R,l,r) + LFE ch, ~ 448 kbps | RUS | DUB | Мосфильм-Мастер Аудио #2: 48 kHz, AC3 Dolby Digital, 3/2 (L,C,R,l,r) + LFE ch, ~ 448 kbps | RUS | MVO | Soundmasters
[+] MediaInfoОбщее Уникальный идентификатор : 126629711780930355538380770611556316713 (0x5F43FED1039B51061BCDA3AB94C0F629) Полное имя : D:TorrentsArthur.the.King.2024.BDRip-AVC_ от New-Team_by_JNS82.mkv Формат : Matroska Версия формата : Version 4 Размер файла : 2,18 Гбайт Продолжительность : 1 ч. 47 м. Общий поток : 2 915 Кбит/сек Название фильма : Arthur.the.King.2024.BDRip-AVC_ от New-Team_by_JNS82 Дата кодирования : UTC 2024-05-20 18:19:36 Программа кодирования : mkvmerge v79.0 ('Funeral Pyres') 64-bit Библиотека кодирования : libebml v1.4.4 + libmatroska v1.7.1 Видео Идентификатор : 1 Формат : AVC Формат/Информация : Advanced Video Codec Профиль формата : High@L4.1 Настройки формата : CABAC / 12 Ref Frames Параметр CABAC формата : Да Параметр RefFrames формата : 12 кадров Идентификатор кодека : V_MPEG4/ISO/AVC Продолжительность : 1 ч. 47 м. Битрейт : 2 019 Кбит/сек Ширина : 1 024 пикселя Высота : 426 пикселей Соотношение сторон : 2,40:1 Режим частоты кадров : Постоянный Частота кадров : 23,976 (24000/1001) кадра/сек Цветовое пространство : YUV Субдискретизация насыщенности : 4:2:0 Битовая глубина : 8 бит Тип развёртки : Прогрессивная Бит/(Пиксели*Кадры) : 0.193 Размер потока : 1,51 Гбайт (69%) Библиотека кодирования : x264 core 164 r3156+57M NewTeam t_mod_New Настройки программы : cabac=1 / ref=12 / deblock=1:-3:-2 / analyse=0x3:0x113 / me=umh / subme=10 / psy=1 / fade_compensate=0.00 / psy_rd=1.03:0.05 / mixed_ref=1 / me_range=32 / chroma_me=1 / trellis=2 / 8x8dct=1 / cqm=0 / deadzone=21,11 / fast_pskip=0 / chroma_qp_offset=-3 / threads=13 / lookahead_threads=3 / sliced_threads=0 / nr=0 / decimate=0 / interlaced=0 / bluray_compat=0 / constrained_intra=0 / fgo=0 / bframes=10 / b_pyramid=2 / b_adapt=2 / b_bias=0 / direct=3 / weightb=1 / open_gop=0 / weightp=2 / keyint=240 / keyint_min=23 / scenecut=40 / intra_refresh=0 / rc_lookahead=60 / rc=2pass / mbtree=0 / bitrate=2019 / ratetol=1.0 / qcomp=0.60 / qpmin=0:0:0 / qpmax=69:69:69 / qpstep=5 / cplxblur=20.0 / qblur=0.5 / vbv_maxrate=50000 / vbv_bufsize=62500 / nal_hrd=none / filler=0 / ip_ratio=1.40 / pb_ratio=1.30 / aq=1:1.00 / aq-sensitivity=10.00 / aq-factor=1.00:1.00:1.00 / aq2=0 / aq3=0 Язык : English Default : Да Forced : Нет Аудио #1 Идентификатор : 2 Формат : AC-3 Формат/Информация : Audio Coding 3 Коммерческое название : Dolby Digital Идентификатор кодека : A_AC3 Продолжительность : 1 ч. 47 м. Вид битрейта : Постоянный Битрейт : 448 Кбит/сек Каналы : 6 каналов Channel layout : L R C LFE Ls Rs Частота : 48,0 КГц Частота кадров : 31,250 кадров/сек (1536 SPF) Метод сжатия : С потерями Размер потока : 343 Мбайт (15%) Заголовок : DUB - Мосфильм-Мастер Язык : Russian Service kind : Complete Main Default : Да Forced : Нет Аудио #2 Идентификатор : 3 Формат : AC-3 Формат/Информация : Audio Coding 3 Коммерческое название : Dolby Digital Идентификатор кодека : A_AC3 Продолжительность : 1 ч. 47 м. Вид битрейта : Постоянный Битрейт : 448 Кбит/сек Каналы : 6 каналов Channel layout : L R C LFE Ls Rs Частота : 48,0 КГц Частота кадров : 31,250 кадров/сек (1536 SPF) Метод сжатия : С потерями Размер потока : 343 Мбайт (15%) Заголовок : MVO - Soundmasters Язык : Russian Service kind : Complete Main Default : Нет Forced : Нет Текст #1 Идентификатор : 4 Формат : UTF-8 Идентификатор кодека : S_TEXT/UTF8 Идентификатор кодека/Информация : UTF-8 Plain Text Продолжительность : 1 ч. 40 м. Битрейт : 12 бит/сек Count of elements : 131 Размер потока : 9,14 Кбайт (0%) Заголовок : Язык : Russian Default : Да Forced : Нет Текст #2 Идентификатор : 5 Формат : UTF-8 Идентификатор кодека : S_TEXT/UTF8 Идентификатор кодека/Информация : UTF-8 Plain Text Продолжительность : 1 ч. 40 м. Битрейт : 104 бит/сек Count of elements : 2007 Размер потока : 77,2 Кбайт (0%) Заголовок : Язык : Russian Default : Нет Forced : Нет Текст #3 Идентификатор : 6 Формат : UTF-8 Идентификатор кодека : S_TEXT/UTF8 Идентификатор кодека/Информация : UTF-8 Plain Text Продолжительность : 1 ч. 45 м. Битрейт : 86 бит/сек Count of elements : 2243 Размер потока : 66,8 Кбайт (0%) Заголовок : Язык : English Default : Нет Forced : Нет Меню 00:00:00.000 : :Chapter 1 00:03:26.206 : :Chapter 2 00:09:29.569 : :Chapter 3 00:19:48.187 : :Chapter 4 00:26:08.567 : :Chapter 5 00:32:27.946 : :Chapter 6 00:37:29.247 : :Chapter 7 00:45:23.721 : :Chapter 8 00:56:49.614 : :Chapter 9 01:03:10.995 : :Chapter 10 01:13:16.392 : :Chapter 11 01:19:46.782 : :Chapter 12 01:24:11.046 : :Chapter 13 01:29:51.386 : :Chapter 14 01:37:04.068 : :Chapter 15 01:40:09.003 : :Chapter 16 01:47:03.417 : :Chapter 17

Всего файлов в раздаче: 1 
Arthur.the.King.2024.BDRip-AVC_ от New-Team_by_JNS82.mkv2.18 GB

Похожие раздачи по запросу - Артур
2024-06-18 magnet Артур Конан Дойль - Письма молодого врача. Загородные приключения (2024) MP3 647.71 MB ↑ 1 ↓ 0
2024-06-16 magnet Артур, ты король / Arthur the King (2024) BDRip 1080p от Generalfilm | D 6.25 GB ↑ 0 ↓ 0
2024-06-05 magnet Артур Конан Дойль и другие - Фенелла (2024) PDF 31.06 MB ↑ 0 ↓ 0
2024-05-23 magnet Артур, ты король / Arthur the King (2024) BDRip-AVC от DoMiNo & селезень | D | Мосфильм-Мастер 744.70 MB ↑ 0 ↓ 1
2024-05-21 magnet Артур, ты король / Arthur the King (2024) BDRip 1080p от селезень | D | Мосфильм-Мастер 8.43 GB ↑ 0 ↓ 0
2024-05-21 magnet Артур, ты король / Arthur the King (2024) BDRip 720p от DoMiNo & селезень | D | Мосфильм-Мастер 3.62 GB ↑ 0 ↓ 0
2024-05-21 magnet Артур, ты король / Arthur the King (2024) BDRip 1080p от MegaPeer | D 7.33 GB ↑ 0 ↓ 0

Кто качает (только для создателя раздачи и модераторов): Локальные пиры отсутствуют

Комментарии


Зарегистрируйтесь чтобы добавить комментарий
Торрент клиент
byTorrent - программа для загрузки торрент-файлов.

Скачать byTorrent.exe (1,5 МБ)

Скачать byTorrent.zip (0,6 МБ)

Поддержи torrent.by
российских рублей
(300 российских рублей это 4$)

Обратная связь rss

End game ©