↑↓torrent.by
Поиск
Логин:  Регистрация
Пароль:

Убийственный отсчёт тел / Killer Body Count (2024) WEBRip 720p | L2

download Скачать торрент-файл   magnet Магнитная ссылка Размер: 1.81 GB Добавлен: 2024-05-21 05:00
Пиры будут получены из сети DHT
Последний сидер был замечен 2024-05-30 16:28
Информация о фильме Название: Убийственный отсчёт тел Оригинальное название: Killer Body Count Год выхода: 2024 Жанр: ужасы Режиссер: Данишка Эстерхази В ролях: Алекс МакГрегор, Кеси Иток, Кхоси Нгема, Бёрн Штейнбах, Джесси Дипевеен, Джейсон К. Ральф, Савана Тардю, Хейк Бруннер О фильме: Принятая набожным отцом за сексуально зависимую, Кэми отправляется в изолированный реабилитационный центр. Но когда на подростков начинает охотиться убийца, Кэми понимает, что её выживание и независимость переплетены так, как она и представить себе не могла. Страна: Канада, Южная Африка Студия: Blue Ice Pictures Продолжительность: 01:49:07 Перевод: любительский (двухголосый, закадровый) Yuka_chan & datynet Файл Кодек: H.264 Качество: WEBRip 720p | L2 Видео: 1280x720 (2.40:1), 23.976 fps, MPEG4 Video (H264) High@L4 ~ 2 185 kbps avg Звук: AC3, 192 Kb/s (2 ch)
[+] MediaInfoGeneral Unique ID : 193941809420580698923294334146055342788 (0x91E7D5756F7E7EF05A094CF9D6B18AC4) Complete name : D:Killer Body Count (2024).mkv Format : Matroska Format version : Version 4 / Version 2 File size : 1.81 GiB Duration : 1 h 49 min Overall bit rate mode : Variable Overall bit rate : 2 374 kb/s Encoded date : UTC 2024-05-20 10:47:13 Writing application : mkvmerge v81.0 ('Milliontown') 64-bit Writing library : libebml v1.4.4 + libmatroska v1.7.1 / Lavf58.76.100 Video ID : 1 Format : AVC Format/Info : Advanced Video Codec Format profile : High@L3.1 Format settings : CABAC / 4 Ref Frames Format settings, CABAC : Yes Format settings, ReFrames : 4 frames Codec ID : V_MPEG4/ISO/AVC Duration : 1 h 49 min Bit rate mode : Variable Bit rate : 2 185 kb/s Maximum bit rate : 6 648 kb/s Width : 1 280 pixels Height : 720 pixels Display aspect ratio : 16:9 Frame rate mode : Constant Frame rate : 23.976 (24000/1001) FPS Color space : YUV Chroma subsampling : 4:2:0 Bit depth : 8 bits Scan type : Progressive Bits/(Pixel*Frame) : 0.099 Stream size : 1.66 GiB (92%) Default : Yes Forced : No Color range : Limited Color primaries : BT.709 Transfer characteristics : BT.709 Matrix coefficients : BT.709 Audio ID : 2 Format : AC-3 Format/Info : Audio Coding 3 Codec ID : A_AC3 Duration : 1 h 49 min Bit rate mode : Constant Bit rate : 192 kb/s Channel(s) : 2 channels Channel positions : Front: L R Sampling rate : 48.0 kHz Frame rate : 31.250 FPS (1536 SPF) Bit depth : 16 bits Compression mode : Lossy Stream size : 150 MiB (8%) Service kind : Complete Main Default : Yes Forced : No
[+] Скриншоты

Всего файлов в раздаче: 1 
Killer Body Count (2024).mkv1.81 GB

Кто качает (только для создателя раздачи и модераторов): Локальные пиры отсутствуют

Комментарии


Зарегистрируйтесь чтобы добавить комментарий
Торрент клиент
byTorrent - программа для загрузки торрент-файлов.

Скачать byTorrent.exe (1,5 МБ)

Скачать byTorrent.zip (0,6 МБ)

Поддержи torrent.by
российских рублей
(300 российских рублей это 4$)

Обратная связь rss

End game ©