↑↓torrent.by
Поиск
Логин:  Регистрация
Пароль:

Артур, ты король / Arthur the King (2024) BDRip 1080p от MegaPeer | D

download Скачать торрент-файл   magnet Магнитная ссылка Размер: 7.33 GB Добавлен: 2024-05-21 11:00
Пиры будут получены из сети DHT
Последний сидер был замечен 2024-05-30 00:51
Информация о фильме Название: Артур, ты король Оригинальное название: Arthur the King Год выхода: 2024 Жанр: Драма, приключения Режиссер: Саймон Селлан Джонс В ролях: Марк Уолберг, Симу Лю, Джульет Райлэнс, Натали Эммануэль, Али Сулиман, Беар Гриллс, Пол Гилфойл, Роб Коллинз, Алани Илонгве Сиси Валентина О фильме: Это было последнее соревнование капитана по приключенческим гонкам Майкла Линднорда, он был полон решимости ничему не позволить встать у него на пути. Собрав первоклассную команду, он не мог и представить, что в 700-километровом забеге у них появится неожиданный попутчик — пес по кличке Артур, встреча с которым изменит не только исход гонки, но и их жизнь. Страна: США, Канада Студия: eOne Films, Lions Gate Films, Mark Canton Productions, Municipal Pictures, Tooley Productions Продолжительность: 01:47:04 Перевод: Профессиональный (полное дублирование) | Мосфильм-Мастер Файл Качество: BDRip 1080p Исходник: Arthur.the.King.2024.COMPLETE.BLURAY-RiSEHD Формат: MKV Кодек: MPEG-4 AVC Видео: 1920x796 (2.40:1), 23.976 fps, MPEG-4 AVC ~ 8977 Kbps avg, 0.245 bit/pixel Аудио: AC3, 48 kHz, 6 ch, ~448.00 kbps avg | русский | DUB | Аудио: AC3, 48 kHz, 6 ch, ~384.00 kbps avg | английский | Субтитры: Русские (Forced, Full (Enigma)), Английские (SDH)
[+] Инфо-файлОбщее Уникальный идентификатор : 226214133070428428352466199834121957644 (0xAA2F41DC9A851A3D8E87D33DAC2F710C) Полное имя : Arthur.the.King.2024.1080p.BluRay.DD.5.1.x264-MegaPeer.mkv Формат : Matroska Версия формата : Version 4 Размер файла : 7,33 Гбайт Продолжительность : 1 ч. 47 мин. Общий битрейт : 9 803 Кбит/сек Частота кадров : 23,976 кадра/сек Название фильма : Артур, ты король / Arthur the King (2024) от stillet@MegaPeer Дата кодирования : 2024-05-20 22:31:05 UTC Программа кодирования : mkvmerge v15.0.0 ('Duel with the Devil') 64-bit Библиотека кодирования : libebml v1.3.5 + libmatroska v1.4.5 Обложка : Yes Attachments : cover.jpg Видео Идентификатор : 1 Формат : AVC Формат/Информация : Advanced Video Codec Профиль формата : High@L4.1 Настройки формата : CABAC / 5 Ref Frames Параметр CABAC формата : Да Параметр RefFrames формата : 5 кадров Идентификатор кодека : V_MPEG4/ISO/AVC Продолжительность : 1 ч. 47 мин. Битрейт : 8 977 Кбит/сек Ширина : 1 920 пикселей Высота : 796 пикселей Соотношение сторон дисплея : 2,40:1 Режим частоты кадров : Постоянный Частота кадров : 23,976 (24000/1001) кадра/сек Цветовое пространство : YUV Цветовая субдискретизация : 4:2:0 Битовая глубина : 8 бит Тип развёртки : Прогрессивная Бит/(Пиксели*Кадры) : 0.245 Размер потока : 6,71 Гбайт (91%) Библиотека кодирования : x264 core 164 r3156+57M stillet t_mod_New Параметры библиотеки кодирования : cabac=1 / ref=5 / deblock=1:-3:-3 / analyse=0x3:0x113 / me=umh / subme=10 / psy=1 / fade_compensate=0.00 / psy_rd=1.03:0.02 / mixed_ref=1 / me_range=32 / chroma_me=1 / trellis=2 / 8x8dct=1 / cqm=0 / deadzone=21,11 / fast_pskip=0 / chroma_qp_offset=-3 / threads=12 / lookahead_threads=3 / sliced_threads=0 / nr=0 / decimate=0 / interlaced=0 / bluray_compat=0 / constrained_intra=0 / fgo=0 / bframes=11 / b_pyramid=2 / b_adapt=2 / b_bias=0 / direct=3 / weightb=1 / open_gop=0 / weightp=2 / keyint=240 / keyint_min=24 / scenecut=40 / intra_refresh=0 / rc_lookahead=40 / rc=2pass / mbtree=0 / bitrate=8977 / ratetol=1.0 / qcomp=0.60 / qpmin=0:0:0 / qpmax=69:69:69 / qpstep=4 / cplxblur=20.0 / qblur=0.5 / vbv_maxrate=50000 / vbv_bufsize=62500 / nal_hrd=none / filler=0 / ip_ratio=1.40 / pb_ratio=1.30 / aq=1:1.10 / aq-sensitivity=10.00 / aq-factor=1.00:1.00:1.00 / aq2=0 / aq3=0 Язык : Английский По умолчанию : Да Принудительно : Нет Аудио #1 Идентификатор : 2 Формат : AC-3 Формат/Информация : Audio Coding 3 Коммерческое название : Dolby Digital Идентификатор кодека : A_AC3 Продолжительность : 1 ч. 47 мин. Вид битрейта : Постоянный Битрейт : 448 Кбит/сек Канал(-ы) : 6 каналов Расположение каналов : L R C LFE Ls Rs Частота дискретизации : 48,0 КГц Частота кадров : 31,250 кадров/сек (1536 SPF) Метод сжатия : С потерями Размер потока : 343 Мбайт (5%) Заголовок : DUB | Мосфильм-Мастер Язык : Русский Вид сервиса : Complete Main По умолчанию : Да Принудительно : Да AC3_metadata cmixlev : -3.0 dB surmixlev : -3 dB Аудио #2 Идентификатор : 3 Формат : AC-3 Формат/Информация : Audio Coding 3 Коммерческое название : Dolby Digital Идентификатор кодека : A_AC3 Продолжительность : 1 ч. 47 мин. Вид битрейта : Постоянный Битрейт : 384 Кбит/сек Канал(-ы) : 6 каналов Расположение каналов : L R C LFE Ls Rs Частота дискретизации : 48,0 КГц Частота кадров : 31,250 кадров/сек (1536 SPF) Метод сжатия : С потерями Размер потока : 294 Мбайт (4%) Язык : Английский Вид сервиса : Complete Main По умолчанию : Нет Принудительно : Нет AC3_metadata cmixlev : -3.0 dB surmixlev : -3 dB Текст #1 Идентификатор : 4 Формат : UTF-8 Идентификатор кодека : S_TEXT/UTF8 Идентификатор кодека/Информация : UTF-8 Plain Text Продолжительность : 1 ч. 40 мин. Битрейт : 12 бит/сек Частота кадров : 0,022 кадр/сек Число элементов : 131 Размер потока : 9,14 КиБ (0%) Заголовок : Forced Язык : Русский По умолчанию : Да Принудительно : Да Текст #2 Идентификатор : 5 Формат : UTF-8 Идентификатор кодека : S_TEXT/UTF8 Идентификатор кодека/Информация : UTF-8 Plain Text Продолжительность : 1 ч. 40 мин. Битрейт : 104 бит/сек Частота кадров : 0,333 кадр/сек Число элементов : 2007 Размер потока : 77,2 КиБ (0%) Заголовок : Full (Enigma) Язык : Русский По умолчанию : Нет Принудительно : Нет Текст #3 Идентификатор : 6 Формат : UTF-8 Идентификатор кодека : S_TEXT/UTF8 Идентификатор кодека/Информация : UTF-8 Plain Text Продолжительность : 1 ч. 45 мин. Битрейт : 86 бит/сек Частота кадров : 0,356 кадр/сек Число элементов : 2243 Размер потока : 66,8 КиБ (0%) Заголовок : SDH Язык : Английский По умолчанию : Нет Принудительно : Нет Меню 00:00:00.000 : Chapter 1 00:03:26.206 : Chapter 2 00:09:29.569 : Chapter 3 00:19:48.187 : Chapter 4 00:26:08.567 : Chapter 5 00:32:27.946 : Chapter 6 00:37:29.247 : Chapter 7 00:45:23.721 : Chapter 8 00:56:49.614 : Chapter 9 01:03:10.995 : Chapter 10 01:13:16.392 : Chapter 11 01:19:46.782 : Chapter 12 01:24:11.046 : Chapter 13 01:29:51.386 : Chapter 14 01:37:04.068 : Chapter 15 01:40:09.003 : Chapter 16 01:47:03.417 : Chapter 17
Релиз:

Всего файлов в раздаче: 1 
Arthur.the.King.2024.1080p.BluRay.DD.5.1.x264-MegaPeer.mkv7.33 GB

Похожие раздачи по запросу - Артур
2024-06-18 magnet Артур Конан Дойль - Письма молодого врача. Загородные приключения (2024) MP3 647.71 MB ↑ 1 ↓ 0
2024-06-16 magnet Артур, ты король / Arthur the King (2024) BDRip 1080p от Generalfilm | D 6.25 GB ↑ 0 ↓ 0
2024-06-05 magnet Артур Конан Дойль и другие - Фенелла (2024) PDF 31.06 MB ↑ 0 ↓ 0
2024-05-23 magnet Артур, ты король / Arthur the King (2024) BDRip-AVC от DoMiNo & селезень | D | Мосфильм-Мастер 744.70 MB ↑ 0 ↓ 1
2024-05-21 magnet Артур, ты король / Arthur the King (2024) BDRip 1080p от селезень | D | Мосфильм-Мастер 8.43 GB ↑ 0 ↓ 0
2024-05-21 magnet Артур, ты король / Arthur the King (2024) BDRip 720p от DoMiNo & селезень | D | Мосфильм-Мастер 3.62 GB ↑ 0 ↓ 0
2024-05-21 magnet Артур, ты король / Arthur the King (2024) BDRip от MegaPeer | D 1.46 GB ↑ 0 ↓ 1

Кто качает (только для создателя раздачи и модераторов): Локальные пиры отсутствуют

Комментарии


Зарегистрируйтесь чтобы добавить комментарий
Торрент клиент
byTorrent - программа для загрузки торрент-файлов.

Скачать byTorrent.exe (1,5 МБ)

Скачать byTorrent.zip (0,6 МБ)

Поддержи torrent.by
российских рублей
(300 российских рублей это 4$)

Обратная связь rss

End game ©