↑↓torrent.by
Поиск
Логин:  Регистрация
Пароль:

Riff Kitten - Chaos Parade [24-bit Hi-Res] (2024) FLAC

download Скачать торрент-файл   magnet Магнитная ссылка Размер: 465.00 MB Добавлен: 2024-05-21 17:00
Пиры будут получены из сети DHT
Последний сидер был замечен 2024-05-22 23:00
Название: Chaos Parade Исполнитель: Riff Kitten Год: 2024 Жанр: Electronic Издатель (лейбл): Freshly Squeezed Продолжительность: 00:40:36 Формат/Кодек: FLAC Тип рипа: Tracks Битрейт аудио: Lossless Разрядность: 24 Bit/44,1 kHz
[+] Трек-лист 01. Hello, Stranger (00:02:46) 02. Chaos Parade (00:03:15) 03. Mistakes Were Made (00:03:04) 04. Love Buzz (00:02:48) 05. Sewer Rat (00:03:31) 06. Gone (00:03:27) 07. Radical Reunion (00:03:18) 08. That's My Cue (00:02:40) 09. We Showed 'em (00:02:30) 10. Viper Queen (00:03:26) 11. Not To Be Outdone (00:03:27) 12. Hall Of Mirrors (00:03:04) 13. Welcome To The End (00:03:20)
[+] DRM foobar2000 1.5.5 / Замер динамического диапазона (DR) 1.1.1 ------------------------------------------------------------------------------- Анализ: Riff Kitten / Chaos Parade -------------------------------------------------------------------------------- DR Пики RMS Продолжительность трека -------------------------------------------------------------------------------- DR6 -0.21 дБ -7.62 дБ 2:46 01-Hello, Stranger DR9 -0.10 дБ -10.33 дБ 3:15 02-Chaos Parade DR8 -0.10 дБ -9.34 дБ 3:04 03-Mistakes Were Made DR7 -0.10 дБ -7.97 дБ 2:48 04-Love Buzz DR9 -0.10 дБ -10.43 дБ 3:31 05-Sewer Rat DR7 -0.10 дБ -8.90 дБ 3:27 06-Gone DR8 -0.10 дБ -9.33 дБ 3:18 07-Radical Reunion DR7 -0.10 дБ -7.70 дБ 2:40 08-That's My Cue DR8 -0.08 дБ -9.59 дБ 2:30 09-We Showed 'em DR8 -0.10 дБ -10.12 дБ 3:26 10-Viper Queen DR7 -0.10 дБ -8.59 дБ 3:27 11-Not To Be Outdone DR7 -0.10 дБ -8.64 дБ 3:04 12-Hall Of Mirrors DR8 -0.10 дБ -10.34 дБ 3:20 13-Welcome To The End -------------------------------------------------------------------------------- Количество треков: 13 Реальные значения DR: DR8 Частота: 44100 Гц Каналов: 2 Разрядность: 24 Битрейт: 1627 кбит/с Кодек: FLAC ================================================================================
Время раздачи: 24/7 (минимум до появления первых 3-5 скачавших, на раздачи не возвращаюсь) Первое правило участника файлообмена: "Скачал сам - дай скачать другому!"

Всего файлов в раздаче: 14 
01. Hello, Stranger.flac31.93 MB
02. Chaos Parade.flac37.22 MB
03. Mistakes Were Made.flac33.55 MB
04. Love Buzz.flac32.32 MB
05. Sewer Rat.flac40.14 MB
06. Gone.flac39.46 MB
07. Radical Reunion.flac38.63 MB
08. That's My Cue.flac31.93 MB
09. We Showed 'Em.flac28.91 MB
10. Viper Queen.flac39.94 MB
Показать все файлы

Кто качает (только для создателя раздачи и модераторов): Локальные пиры отсутствуют

Комментарии


Зарегистрируйтесь чтобы добавить комментарий
Торрент клиент
byTorrent - программа для загрузки торрент-файлов.

Скачать byTorrent.exe (1,5 МБ)

Скачать byTorrent.zip (0,6 МБ)

Поддержи torrent.by
российских рублей
(300 российских рублей это 4$)

Обратная связь rss

End game ©