↑↓torrent.by
Поиск
Логин:  Регистрация
Пароль:

Бюро магических услуг / Магічні двері / The Portable Door (2023) BDRemux 1080p | D | UKR

download Скачать торрент-файл   magnet Магнитная ссылка Размер: 25.46 GB Добавлен: 2024-05-21 17:00
Пиры будут получены из сети DHT
Последний сидер был замечен 2024-05-21 17:00
Информация о фильме Название: Бюро магических услуг Оригинальное название: The Portable Door Год выхода: 2023 Жанр: фэнтези, комедия, детектив, приключения Режиссер: Джеффри Уокер В ролях: Кристоф Вальц, Патрик Гибсон, Дэймон Херриман, Софи Уайлд, Сэм Нил, Деми Харман, Рэйчел Хаус, Миранда Отто, Крис Пан, Арка Дас О фильме: Самые обычные клерки работают в весьма необычной фирме. Здесь распутывают самые странные происшествия и занимаются поисками магических артефактов. Непримечательная парочка стажеров — исполнителей среднего звена — даже не подозревает, во что ввязалась, и думает лишь, как бы разобраться с рутиной до ужина, желательно не изменив ход истории и не повергнув Вселенную в хаос временных парадоксов. Иначе повышения им точно не видать. Страна: Австралия Продолжительность: 01:55:56 Перевод: Дублированный (Megogo) | (Украинский) Файл Кодек: H.264 Качество: BDRemux 1080p Видео: AVC, 1920x1080 (16:9), 23.976 fps, 29 Mb/s Аудио 1: AC3, 48.0 kHz, 6 ch, 448 kb/s | UKR Аудио 2: DTS-HD MA, 48.0 kHz, 6 ch, 1889 kb/s | ENG Субтитры: английские
[+] MIGeneral Unique ID : 242734345032587978348697139767151895917 (0xB69CEF32690218254C52E80A2A13256D) Complete name : The Portable Door (2023) BDRemux 1080p Ukr_Eng .mkv Format : Matroska Format version : Version 4 File size : 25.5 GiB Duration : 1 h 55 min Overall bit rate mode : Variable Overall bit rate : 31.4 Mb/s Movie name : The Portable Door (2023) Encoded date : UTC 2024-05-19 16:55:48 Writing application : mkvmerge v84.0 ('Sleeper') 64-bit Writing library : libebml v1.4.5 + libmatroska v1.7.1 Cover : Yes Attachments : Cover.jpg Video ID : 1 Format : AVC Format/Info : Advanced Video Codec Format profile : High@L4.1 Format settings : CABAC / 4 Ref Frames Format settings, CABAC : Yes Format settings, Reference frames : 4 frames Codec ID : V_MPEG4/ISO/AVC Duration : 1 h 55 min Bit rate mode : Variable Bit rate : 29.0 Mb/s Maximum bit rate : 35.0 Mb/s Width : 1 920 pixels Height : 1 080 pixels Display aspect ratio : 16:9 Frame rate mode : Constant Frame rate : 23.976 (24000/1001) FPS Color space : YUV Chroma subsampling : 4:2:0 Bit depth : 8 bits Scan type : Progressive Bits/(Pixel*Frame) : 0.582 Stream size : 23.4 GiB (92%) Default : Yes Forced : No Color range : Limited Color primaries : BT.709 Transfer characteristics : BT.709 Matrix coefficients : BT.709 Audio #1 ID : 2 Format : AC-3 Format/Info : Audio Coding 3 Commercial name : Dolby Digital Codec ID : A_AC3 Duration : 1 h 55 min Bit rate mode : Constant Bit rate : 448 kb/s Channel(s) : 6 channels Channel layout : L R C LFE Ls Rs Sampling rate : 48.0 kHz Frame rate : 31.250 FPS (1536 SPF) Compression mode : Lossy Stream size : 371 MiB (1%) Title : DUB (Megogo) Language : Ukrainian Service kind : Complete Main Default : Yes Forced : No Audio #2 ID : 3 Format : DTS XLL Format/Info : Digital Theater Systems Commercial name : DTS-HD Master Audio Codec ID : A_DTS Duration : 1 h 55 min Bit rate mode : Variable Bit rate : 1 989 kb/s Channel(s) : 6 channels Channel layout : C L R Ls Rs LFE Sampling rate : 48.0 kHz Frame rate : 93.750 FPS (512 SPF) Bit depth : 16 bits Compression mode : Lossless Stream size : 1.61 GiB (6%) Title : Original Language : English Default : No Forced : No Text ID : 4 Format : PGS Codec ID : S_HDMV/PGS Codec ID/Info : Picture based subtitle format used on BDs/HD-DVDs Duration : 1 h 54 min Bit rate : 37.6 kb/s Count of elements : 3064 Stream size : 30.7 MiB (0%) Language : English Default : No Forced : No Menu 00:00:00.000 : en:(01)00:00:00:000 00:14:12.434 : en:(02)00:14:12:434 00:22:59.836 : en:(03)00:22:59:836 00:34:30.401 : en:(04)00:34:30:401 00:42:38.264 : en:(05)00:42:38:264 00:54:15.794 : en:(06)00:54:15:794 01:08:21.013 : en:(07)01:08:21:013 01:18:43.301 : en:(08)01:18:43:301 01:32:44.267 : en:(09)01:32:44:267 01:41:21.742 : en:(10)01:41:21:742 01:45:45.088 : en:(11)01:45:45:088 01:48:48.939 : en:(12)01:48:48:939 01:55:56.240 : en:(13)01:55:56:240
[+] Скриншоты

Всего файлов в раздаче: 1 
The Portable Door (2023) BDRemux 1080p Ukr_Eng [Hurtom].mkv25.46 GB

Похожие раздачи по запросу - Бюро
2024-05-25 magnet Бюро магических услуг / The Portable Door (2023) UHD WEB-DL-HEVC 2160p | 4K | HDR10+ | D, P 12.05 GB ↑ 0 ↓ 3
2024-05-23 magnet Бюро магических услуг / The Portable Door (2023) BDRip-AVC от DoMiNo & селезень | D 747.26 MB ↑ 0 ↓ 0
2024-05-22 magnet Бюро магических услуг / The Portable Door (2023) BDRip 1080p от селезень | D, P 9.24 GB ↑ 0 ↓ 0
2024-05-22 magnet Бюро магических услуг / The Portable Door (2023) BDRip-AVC от DoMiNo & селезень | D, P 1.96 GB ↑ 0 ↓ 1
2024-05-22 magnet Бюро магических услуг / The Portable Door (2023) BDRip от MegaPeer | D 1.46 GB ↑ 0 ↓ 0
2024-03-29 magnet Бюро магических услуг / The Portable Door (2023) WEB-DLRip от toxics & селезень | D 1.46 GB ↑ 0 ↓ 0
2024-03-29 magnet Бюро магических услуг / The Portable Door (2023) WEB-DLRip 720p от DoMiNo & селезень | D, P 1К2.49 GB ↑ 0 ↓ 0

Кто качает (только для создателя раздачи и модераторов): Локальные пиры отсутствуют

Комментарии


Зарегистрируйтесь чтобы добавить комментарий
Торрент клиент
byTorrent - программа для загрузки торрент-файлов.

Скачать byTorrent.exe (1,5 МБ)

Скачать byTorrent.zip (0,6 МБ)

Поддержи torrent.by
российских рублей
(300 российских рублей это 4$)

Обратная связь rss

End game ©