↑↓torrent.by
Поиск
Логин:  Регистрация
Пароль:

Наклз / Knuckles [S01] (2024) UHD WEB-DL-HEVC 2160p | 4K | HDR10+ | D, P

download Скачать торрент-файл   magnet Магнитная ссылка Размер: 19.39 GB Добавлен: 2024-05-21 17:00
Пиры будут получены из сети DHT
Последний сидер был замечен 2024-05-21 17:00
Название: Наклз Оригинальное название: Knuckles Год выхода: 2024 Производство: США, Япония / Paramount Pictures, Sega Sammy Group, Original Film Жанр: Фантастика, фэнтези, боевик, комедия Перевод: Дублированный неофициальный, профессиональный многоголосый Продолжительность: 06х ~00:35:00 Режиссёры: Кэрол Бенкер, Брэндон Трост, Джефф Фаулер, Йорма Такконе В ролях: Идрис Эльба, Адам Палли, Джейми Барбакофф, Тони Коклан, Бен Шварц, Дэниэл Сингх, Коллин О’Шонесси, Альфредо Таварес, Адам Керр Описание: Сериал Наклз спин-офф серии фильмов "Соник в кино". Красная ехидна Наклз вступает в неожиданное партнёрство с полицейским Уэйдом Уипплом. Наклз соглашается стать наставником Уэйда и делится с ним своими уникальными приёмами воина. Вместе они принимаются за разгадывание сложных преступлений и борются с преступностью, в которую они втянуты из-за их совместных усилий. Формат: MKV Качество: WEB-DL 2160p Видео: MPEG-H HEVC / ~13.6 Мбит/с / 3840x2160 / 23.976 fps Аудио 1: AC-3, 48 kHz, 6 ch, 448 kbps | Русский, MVO | TVShows Аудио 2: AC-3, 48 kHz, 6 ch, 640 kbps | Русский, DUB | Red Head Sound Аудио 3: AC-3, 48 kHz, 2 ch, 384 kbps | Русский, MVO | HDRezka Аудио 4: AC-3, 48 kHz, 2 ch, 384 kbps | Русский, MVO | LostFilm Аудио 5: E-AC-3 ATMOS, 48 kHz, 6 ch, 768 kbps | Original Субтитры: Русские (Forced, Full), английские (Full, SDH)
[+] MediainfoGeneral Unique ID : 53892891465860636483674655232191393766 (0x288B64B259087058A72BD844DFCC6FE6) Complete name : E:DownloadKnuckles.S01.2160p.WEB-DL.HDRKnuckles.S01E01.2160p.WEB-DL.HDR.mkv Format : Matroska Format version : Version 4 File size : 3.84 GiB Duration : 33 min 59 s Overall bit rate : 16.2 Mb/s Frame rate : 23.976 FPS Movie name : 01. Воин / The Warrior Encoded date : 2024-05-18 20:22:22 UTC Writing application : mkvmerge v68.0.0 ('The Curtain') 64-bit Writing library : libebml v1.4.2 + libmatroska v1.6.4 Cover : Yes Attachments : Cover.jpg Video ID : 1 Format : HEVC Format/Info : High Efficiency Video Coding Format profile : Main 10@L5@Main HDR format : SMPTE ST 2094 App 4, Version 1, HDR10+ Profile B compatible Codec ID : V_MPEGH/ISO/HEVC Duration : 33 min 59 s Bit rate : 13.6 Mb/s Width : 3 840 pixels Height : 2 160 pixels Display aspect ratio : 16:9 Frame rate mode : Constant Frame rate : 23.976 (24000/1001) FPS Color space : YUV Chroma subsampling : 4:2:0 (Type 2) Bit depth : 10 bits Bits/(Pixel*Frame) : 0.068 Stream size : 3.22 GiB (84%) Title : The Warrior Language : English Default : Yes Forced : No Color range : Limited Color primaries : BT.2020 Transfer characteristics : PQ Matrix coefficients : BT.2020 non-constant Mastering display color primar : Display P3 Mastering display luminance : min: 0.0050 cd/m2, max: 4000 cd/m2 Maximum Content Light Level : 400 cd/m2 Maximum Frame-Average Light Le : 396 cd/m2 Audio #1 ID : 2 Format : AC-3 Format/Info : Audio Coding 3 Commercial name : Dolby Digital Codec ID : A_AC3 Duration : 33 min 42 s Bit rate mode : Constant Bit rate : 448 kb/s Channel(s) : 6 channels Channel layout : L R C LFE Ls Rs Sampling rate : 48.0 kHz Frame rate : 31.250 FPS (1536 SPF) Compression mode : Lossy Stream size : 108 MiB (3%) Title : MVO - TVShows Language : Russian Service kind : Complete Main Default : Yes Forced : No AC3_metadata cmixlev : -4.5 dB surmixlev : -6 dB Audio #2 ID : 3 Format : AC-3 Format/Info : Audio Coding 3 Commercial name : Dolby Digital Codec ID : A_AC3 Duration : 33 min 42 s Bit rate mode : Constant Bit rate : 640 kb/s Channel(s) : 6 channels Channel layout : L R C LFE Ls Rs Sampling rate : 48.0 kHz Frame rate : 31.250 FPS (1536 SPF) Compression mode : Lossy Stream size : 154 MiB (4%) Title : DUB - Red Head Sound Language : Russian Service kind : Complete Main Default : No Forced : No AC3_metadata cmixlev : -4.5 dB surmixlev : -6 dB Audio #3 ID : 4 Format : AC-3 Format/Info : Audio Coding 3 Commercial name : Dolby Digital Codec ID : A_AC3 Duration : 33 min 42 s Bit rate mode : Constant Bit rate : 384 kb/s Channel(s) : 2 channels Channel layout : L R Sampling rate : 48.0 kHz Frame rate : 31.250 FPS (1536 SPF) Compression mode : Lossy Stream size : 92.6 MiB (2%) Title : MVO - HDRezka Language : Russian Service kind : Complete Main Default : No Forced : No Audio #4 ID : 5 Format : AC-3 Format/Info : Audio Coding 3 Commercial name : Dolby Digital Codec ID : A_AC3 Duration : 33 min 59 s Bit rate mode : Constant Bit rate : 384 kb/s Channel(s) : 2 channels Channel layout : L R Sampling rate : 48.0 kHz Frame rate : 31.250 FPS (1536 SPF) Compression mode : Lossy Stream size : 93.4 MiB (2%) Title : MVO - LostFilm Language : Russian Service kind : Complete Main Default : No Forced : No Audio #5 ID : 6 Format : E-AC-3 JOC Format/Info : Enhanced AC-3 with Joint Object Coding Commercial name : Dolby Digital Plus with Dolby Atmos Codec ID : A_EAC3 Duration : 33 min 59 s Bit rate mode : Constant Bit rate : 768 kb/s Channel(s) : 6 channels Channel layout : L R C LFE Ls Rs Sampling rate : 48.0 kHz Frame rate : 31.250 FPS (1536 SPF) Compression mode : Lossy Stream size : 187 MiB (5%) Title : Original Language : English Service kind : Complete Main Default : No Forced : No Complexity index : 16 Number of dynamic objects : 15 Bed channel count : 1 channel Bed channel configuration : LFE Text #1 ID : 7 Format : UTF-8 Codec ID : S_TEXT/UTF8 Codec ID/Info : UTF-8 Plain Text Duration : 30 min 59 s Bit rate : 1 b/s Frame rate : 0.007 FPS Count of elements : 13 Stream size : 460 Bytes (0%) Title : Forced Language : Russian Default : Yes Forced : No Text #2 ID : 8 Format : UTF-8 Codec ID : S_TEXT/UTF8 Codec ID/Info : UTF-8 Plain Text Duration : 32 min 40 s Bit rate : 117 b/s Frame rate : 0.263 FPS Count of elements : 516 Stream size : 28.1 KiB (0%) Title : Full Language : Russian Default : No Forced : No Text #3 ID : 9 Format : UTF-8 Codec ID : S_TEXT/UTF8 Codec ID/Info : UTF-8 Plain Text Duration : 32 min 37 s Bit rate : 83 b/s Frame rate : 0.324 FPS Count of elements : 635 Stream size : 20.0 KiB (0%) Title : Full Language : English Default : No Forced : No Text #4 ID : 10 Format : UTF-8 Codec ID : S_TEXT/UTF8 Codec ID/Info : UTF-8 Plain Text Duration : 32 min 50 s Bit rate : 105 b/s Frame rate : 0.396 FPS Count of elements : 781 Stream size : 25.3 KiB (0%) Title : SDH Language : English Default : No Forced : No Menu 00:00:00.000 : en:Chapter 1 00:14:04.117 : en:Chapter 2 00:20:00.450 : en:Chapter 3 00:30:40.172 : en:Chapter 4
[+] Скриншоты

Всего файлов в раздаче: 6 
Knuckles.S01E01.2160p.WEB-DL.HDR.mkv3.84 GB
Knuckles.S01E02.2160p.WEB-DL.HDR.mkv2.89 GB
Knuckles.S01E03.2160p.WEB-DL.HDR.mkv3.16 GB
Knuckles.S01E04.2160p.WEB-DL.HDR.mkv2.71 GB
Knuckles.S01E05.2160p.WEB-DL.HDR.mkv3.51 GB
Knuckles.S01E06.2160p.WEB-DL.HDR.mkv3.28 GB

Похожие раздачи по запросу - Наклз
2024-05-14 magnet Наклз / Knuckles [S01] (2024) UHD WEB-DL-HEVC 2160p | 4K | SDR | D, P 20.06 GB ↑ 0 ↓ 0
2024-05-11 magnet Наклз / Knuckles [S01] (2024) WEB-DL 1080p | D, P 13.16 GB ↑ 0 ↓ 1
2024-05-09 magnet Наклз / Knuckles [S01] (2024) WEB-DLRip-AVC от DoMiNo & селезень | D, P | Red Head Sound, HDRezka Studio, LostFilm 2.93 GB ↑ 0 ↓ 1
2024-05-09 magnet Наклз / Knuckles [S01] (2024) WEB-DL 1080p от Scarabey | D | Red Head Sound 12.46 GB ↑ 0 ↓ 0
2024-05-08 magnet Наклз / Knuckles [01x01-03 из 06] (2024) WEB-DL 1080p от Scarabey | D | Red Head Sound 6.22 GB ↑ 0 ↓ 0
2024-05-05 magnet Наклз / Knuckles [S01] (2024) WEB-DLRip-AVC от DoMiNo & селезень | HDRezka Studio 2.16 GB ↑ 0 ↓ 0
2024-05-01 magnet Наклз / Knuckles [S01] (2024) WEB-DL 1080p | HDRezka Studio, LostFilm 12.09 GB ↑ 0 ↓ 0

Кто качает (только для создателя раздачи и модераторов): Локальные пиры отсутствуют

Комментарии


Зарегистрируйтесь чтобы добавить комментарий
Торрент клиент
byTorrent - программа для загрузки торрент-файлов.

Скачать byTorrent.exe (1,5 МБ)

Скачать byTorrent.zip (0,6 МБ)

Поддержи torrent.by
российских рублей
(300 российских рублей это 4$)

Обратная связь rss

End game ©