↑↓torrent.by
Поиск
Логин:  Регистрация
Пароль:

Люди Икс '97 / X-Men '97 [01x01-08 из 10] (2024) WEB-DLRip 1080p | D | Локализованная версия | Flarrow Films

download Скачать торрент-файл   magnet Магнитная ссылка Размер: 14.51 GB Добавлен: 2024-05-21 17:00
Пиры будут получены из сети DHT
Последний сидер был замечен 2024-05-21 17:00
Информация о фильме Название: Люди Икс ’97 Оригинальное название: X-Men '97 Год выхода: 2024 Жанр: мультфильм, фантастика, боевик, приключения Режиссер: Чейз Конли, Джейк Касторена, Еми Ёнемура В ролях: Рэй Чейз, Дженнифер Хейл, Кэл Додд, Джордж Бьюза, Мэттью Уотерсон, Ленор Занн, Джон Пол Карлиак, Элисон Сили-Смит, Эйджей Локасио, Исаак Робинсон-Смит, Холли Чоу, Росс Маркванд, Крис Бриттон, Крис Поттер, Тодд Хаберкорн О фильме: Люди Икс пытаются приспособиться к жизни без профессора Ксавье. Не всем членам команды нравится лидерство Скотта Саммерса, да и сам Циклоп тяготится своей новой ролью. Джин Грей беременна, и она предлагает мужу покинуть команду, чтобы воспитать ребенка в более спокойной обстановке. После предполагаемой гибели Ксавье симпатии к мутантам возросли, а ООН официально признала команду супергероев. Но далеко не все люди готовы к мирному сосуществованию. Страна: США, Корея Южная Продолжительность: 00:30:30 Перевод: Дублированный (неофициальный) | Flarrow Films Роли озвучивали: Денис Кузьмичёв, Ахилл Намазов, Елена Лунина, Антонина Лазаревская, Алина Лихачёва, Дмитрий Бугаков, Андрей Лысенко, Виталий Кашеваров, Константин Федосеев, Михаил Глушковский, Ислам Ганджаев, Анастасия Лапина, Александр Носков, Андрей Маслов, Алексей Ядренников, Зарина Черткоева, Константин Погодаев, Дмитрий Мальков, Андрей Бархударов, Владимир Антоник, Дмитрий Стрелков, Олег Белов, Элиза Мартиросова, Елена Ефремова, Александр Скиданов, Антон Савенков, Геннадий Новиков Файл Формат:MKV Кодек: MPEG-4 AVC Качество: WEB-DLRip 1080p (Локализированный видеоряд) Видео: 1920х1040, ~ 8 247 kb/s, 24.000, 8 bits Аудио: AC-3, 192 kb/s, 2 channels, 48.0 kHz Субтитры: Русские (отключаемые UTF-8)
[+] MediaInfo General Unique ID : 281333323574953808506107587261908506800 (0xD3A6D3C4DDE56ED895996DF83E11D8B0) Complete name : C:Flarrow FilmsX-Men.97.S01.1080p.D.Flarrow.FilmsX-Men.97.S01E01.Flarrow.Films.mkv Format : Matroska Format version : Version 4 File size : 1.78 GiB Duration : 30 min 30 s Overall bit rate : 8 377 kb/s Encoded date : UTC 2024-03-30 20:18:45 Writing application : mkvmerge v45.0.0 ('Heaven in Pennies') 64-bit Writing library : libebml v1.3.10 + libmatroska v1.5.2 Video ID : 1 Format : AVC Format/Info : Advanced Video Codec Format profile : High@L4 Format settings : CABAC / 4 Ref Frames Format settings, CABAC : Yes Format settings, Reference : 4 frames Codec ID : V_MPEG4/ISO/AVC Duration : 30 min 30 s Bit rate : 8 247 kb/s Width : 1 920 pixels Height : 1 080 pixels Display aspect ratio : 16:9 Frame rate mode : Constant Frame rate : 24.000 FPS Color space : YUV Chroma subsampling : 4:2:0 Bit depth : 8 bits Scan type : Progressive Bits/(Pixel*Frame) : 0.166 Stream size : 1.74 GiB (98%) Writing library : x264 core 161 Encoding settings : cabac=1 / ref=4 / deblock=1:1:1 / analyse=0x3:0x113 / me=hex / subme=4 / psy=1 / psy_rd=0.40:0.00 / mixed_ref=0 / me_range=16 / chroma_me=1 / trellis=1 / 8x8dct=1 / cqm=0 / deadzone=21,11 / fast_pskip=1 / chroma_qp_offset=0 / threads=12 / lookahead_threads=3 / sliced_threads=0 / nr=0 / decimate=1 / interlaced=0 / bluray_compat=0 / constrained_intra=0 / bframes=2 / b_pyramid=0 / b_adapt=1 / b_bias=0 / direct=1 / weightb=1 / open_gop=0 / weightp=1 / keyint=192 / keyint_min=19 / scenecut=40 / intra_refresh=0 / rc_lookahead=20 / rc=abr / mbtree=1 / bitrate=8247 / ratetol=1.0 / qcomp=0.60 / qpmin=0 / qpmax=69 / qpstep=4 / vbv_maxrate=10994 / vbv_bufsize=16495 / nal_hrd=none / filler=0 / ip_ratio=1.40 / aq=1:0.60 Default : Yes Forced : No Color range : Limited Color primaries : BT.709 Transfer characteristics : BT.709 Matrix coefficients : BT.709 Audio ID : 2 Format : AC-3 Format/Info : Audio Coding 3 Commercial name : Dolby Digital Codec ID : A_AC3 Duration : 30 min 30 s Bit rate mode : Constant Bit rate : 192 kb/s Channel(s) : 2 channels Channel layout : L R Sampling rate : 48.0 kHz Frame rate : 31.250 FPS (1536 SPF) Compression mode : Lossy Stream size : 41.9 MiB (2%) Service kind : Complete Main Default : Yes Forced : No Text ID : 3 Format : UTF-8 Codec ID : S_TEXT/UTF8 Codec ID/Info : UTF-8 Plain Text Duration : 28 min 25 s Bit rate : 145 b/s Frame rate : 0.300 FPS Count of elements : 512 Stream size : 30.3 KiB (0%) Default : Yes Forced : No
[+] Скриншоты
Релиз от: Flarrow Films Примечание: Релиз без рекламы.

Всего файлов в раздаче: 8 
X-Men.97.S01E01.Flarrow.Films.mkv1.78 GB
X-Men.97.S01E02.Flarrow.Films.mkv1.80 GB
X-Men.97.S01E03.Flarrow.Films.mkv1.77 GB
X-Men.97.S01E04.Flarrow.Films.mkv1.61 GB
X-Men.97.S01E05.Flarrow.Films.mkv2.03 GB
X-Men.97.S01E06.Flarrow.Films.mkv1.83 GB
X-Men.97.S01E07.Flarrow.Films.mkv1.86 GB
X-Men.97.S01E08.Flarrow.Films.mkv1.83 GB

Похожие раздачи по запросу - Люди
2024-06-11 magnet Последние люди / Les derniers hommes / The Last Men (2023) WEB-DLRip-AVC | L 1К2.70 GB ↑ 65 ↓ 0
2024-06-07 magnet Люди Икс '97 / X-Men '97 [S01] (2024) WEB-DLRip 1080p | D | Локализованная версия | Flarrow Films 18.56 GB ↑ 0 ↓ 0
2024-06-06 magnet Люди мафии / Made Men (1999) DVDRip от New-Team | P 1.11 GB ↑ 0 ↓ 0
2024-06-06 magnet Люди мафии / Made Men (1999) DVDRip-AVC от New-Team | P 1.46 GB ↑ 0 ↓ 0
2024-06-05 magnet Люди мафии / Made Men (1999) WEB-DLRip-AVC от New-Team | P 1.46 GB ↑ 0 ↓ 0
2024-06-05 magnet Люди мафии / Made Men (1999) WEB-DLRip 720p от New-Team | P, A 2.18 GB ↑ 0 ↓ 0
2024-06-03 magnet Люди в океане (1980) HDTVRip от New-Team 1.09 GB ↑ 0 ↓ 0

Кто качает (только для создателя раздачи и модераторов): Локальные пиры отсутствуют

Комментарии


Зарегистрируйтесь чтобы добавить комментарий
Торрент клиент
byTorrent - программа для загрузки торрент-файлов.

Скачать byTorrent.exe (1,5 МБ)

Скачать byTorrent.zip (0,6 МБ)

Поддержи torrent.by
российских рублей
(300 российских рублей это 4$)

Обратная связь rss

End game ©