↑↓torrent.by
Поиск
Логин:  Регистрация
Пароль:

Мосгаз Дело №10 Метроном [S10] (2024) WEBRip от New-Team

download Скачать торрент-файл   magnet Магнитная ссылка Размер: 3.65 GB Добавлен: 2024-05-21 17:00
Пиры будут получены из сети DHT
Последний сидер был замечен 2024-06-15 11:23
Страна: Россия Производство: Студия Русский Проект Жанр: детектив, криминал, триллер Год выпуска: 2018 Продолжительность: 8 серий ~ по 50 мин. Перевод: не требуется Оригинальная аудиодорожка: русский Cубтитры: нет Режиссер: Евгений Звездаков В ролях: Марина Александрова, Алексей Бардуков, Александр Голубев, Андрей Мерзликин, Игорь Золотовицкий, Сергей Шакуров, Фёдор Лавров, Артур Ваха, Эдуард Чекмазов, Андрей Смоляков... Полный список актёров Описание: 1982 год. Соня Тимофеева, Алексей Гаркуша и Егор Осадчий теперь сами по себе, а амбициозный майор Виктор Ковалев пытается занять пустующее место руководителя оперативной группы. Тем временем в Москве прямо во время выступления погибает известный эстрадный артист и сотрудник Москонцерта Андрей Гринякин. Все указывает на то, что кто-то пытается «замять» это дело. Соня Тимофеева в тайне от всех начинает вести свое расследование. Понять, что происходит в Москонцерте, пытается и Ковалев. Очевидно, что подпольную деятельность Москонцерта покрывают влиятельные люди. События разворачиваются стремительно: один за другим погибают участники преступной схемы директора Москонцерта Ольшевского. Исходник: WEBRip 1080p Качество видео: WEBRip Формат видео: AVI Видео: 720x400 (16:9), 25,000 кадра/сек, XviD 73 ~ 1 101 кбит/сек, 0.153 бит/пиксель Аудио: 48 кГц, Dolby Digital AC3 2.0, 192 кбит/сек Раздача от:
[+] MediaInfo Общее Полное имя : Метроном.2024.WEBRip__by_AVP_Studio.avi Формат : AVI Формат/Информация : Audio Video Interleave Настройки формата : BitmapInfoHeader / WaveFormatEx Размер файла : 471 Мбайт Продолжительность : 50 мин. 34 с. Общий битрейт : 1 302 Кбит/сек Частота кадров : 25,000 кадров/сек Программа кодирования : VirtualDubMod 1.5.10.3 | www.virtualdub-fr.org || (build 2550/release) Библиотека кодирования : VirtualDubMod build 2550/release Видео Идентификатор : 0 Формат : MPEG-4 Visual Профиль формата : Advanced Simple@L5 Настройки формата : BVOP1 / Custom Matrix Параметр BVOP формата : 1 Параметр QPel формата : Нет Параметр GMC формата : Без точки перехода Параметр Matrix формата : Выборочная Идентификатор кодека : XVID Идентификатор кодека/Подсказка : XviD Продолжительность : 50 мин. 34 с. Битрейт : 1 101 Кбит/сек Ширина : 720 пикселей Высота : 400 пикселей Соотношение сторон дисплея : 16:9 Частота кадров : 25,000 кадров/сек Цветовое пространство : YUV Цветовая субдискретизация : 4:2:0 Битовая глубина : 8 бит Тип развёртки : Прогрессивная Метод сжатия : С потерями Бит/(Пиксели*Кадры) : 0.153 Размер потока : 398 Мбайт (85%) Библиотека кодирования : XviD 73 Аудио Идентификатор : 1 Формат : AC-3 Формат/Информация : Audio Coding 3 Коммерческое название : Dolby Digital Идентификатор кодека : 2000 Продолжительность : 50 мин. 34 с. Вид битрейта : Постоянный Битрейт : 192 Кбит/сек Канал(-ы) : 2 канала Расположение каналов : L R Частота дискретизации : 48,0 КГц Частота кадров : 31,250 кадров/сек (1536 SPF) Метод сжатия : С потерями Размер потока : 69,4 Мбайт (15%) Выравнивание : Разделение по промежуткам Чередование, продолжительность : 40 мс. (1,00 видеокадр) Чередование, продолжительность пред.загр : 500 мс
[+] Скриншоты

Всего файлов в раздаче: 8 
Серия 01.avi471.02 MB
Серия 02.avi469.66 MB
Серия 03.avi483.96 MB
Серия 04.avi467.29 MB
Серия 05.avi466.84 MB
Серия 06.avi462.15 MB
Серия 07.avi464.04 MB
Серия 08.avi457.67 MB

Похожие раздачи по запросу - Мосгаз
2024-05-23 magnet Мосгаз [S01-10 из 10] (2012-2024) WEB-DLRip, WEBRip от Generalfilm | КПК 15.66 GB ↑ 0 ↓ 0
2024-05-21 magnet Мосгаз Дело №10 Метроном [S10] (2024) WEBRip-AVC от New-Team 6.54 GB ↑ 0 ↓ 0
2024-05-19 magnet Мосгаз Дело №9 Последнее дело Черкасова [S09] (2023) WEBRip от New-Team 3.65 GB ↑ 0 ↓ 0
2024-05-16 magnet Мосгаз. Дело №10: Метроном [S10] (2024) WEBRip от Files-x 5.00 GB ↑ 0 ↓ 0
2024-05-15 magnet Мосгаз. Дело №10: Метроном [S10] (2024) WEBRip 720p от ExKinoRay 9.64 GB ↑ 0 ↓ 0
2024-05-15 magnet Мосгаз. Дело №10: Метроном [S10] (2024) WEBRip-AVC от Files-x 5.03 GB ↑ 0 ↓ 0
2024-05-14 magnet Мосгаз. Дело №10: Метроном [S10] (2024) WEBRip 1080p от ExKinoRay 15.39 GB ↑ 0 ↓ 0

Комментарии


Зарегистрируйтесь чтобы добавить комментарий
Торрент клиент
byTorrent - программа для загрузки торрент-файлов.

Скачать byTorrent.exe (1,5 МБ)

Скачать byTorrent.zip (0,6 МБ)

Поддержи torrent.by
российских рублей
(300 российских рублей это 4$)

Обратная связь rss

End game ©