↑↓torrent.by
Поиск
Логин:  Регистрация
Пароль:

Мосгаз Дело №10 Метроном [S10] (2024) WEBRip-AVC от New-Team

download Скачать торрент-файл   magnet Магнитная ссылка Размер: 6.54 GB Раздают: 1 Качают: 0 Добавлен: 2024-05-21 17:00
Пиры будут получены из сети DHT
Последний сидер был замечен сегодня в 12:44
Страна: Россия Производство: Студия Русский Проект Жанр: детектив, криминал, триллер Год выпуска: 2018 Продолжительность: 8 серий ~ по 50 мин. Перевод: не требуется Оригинальная аудиодорожка: русский Cубтитры: нет Режиссер: Евгений Звездаков В ролях: Марина Александрова, Алексей Бардуков, Александр Голубев, Андрей Мерзликин, Игорь Золотовицкий, Сергей Шакуров, Фёдор Лавров, Артур Ваха, Эдуард Чекмазов, Андрей Смоляков... Полный список актёров Описание: 1982 год. Соня Тимофеева, Алексей Гаркуша и Егор Осадчий теперь сами по себе, а амбициозный майор Виктор Ковалев пытается занять пустующее место руководителя оперативной группы. Тем временем в Москве прямо во время выступления погибает известный эстрадный артист и сотрудник Москонцерта Андрей Гринякин. Все указывает на то, что кто-то пытается «замять» это дело. Соня Тимофеева в тайне от всех начинает вести свое расследование. Понять, что происходит в Москонцерте, пытается и Ковалев. Очевидно, что подпольную деятельность Москонцерта покрывают влиятельные люди. События разворачиваются стремительно: один за другим погибают участники преступной схемы директора Москонцерта Ольшевского. Исходник: WEBRip 1080p Качество видео: WEBRip-AVC Формат видео: MKV Видео: 1024x576 (16:9), 25,000 кадра/сек, x264 core 164 r3182 ~ 2138 кбит/сек, 0.145 бит/пиксель Аудио: 48 кГц, Dolby Digital AC3 2.0, 192 кбит/сек Раздача от:
[+] MediaInfo Общее Полное имя : Метроном.2024.WEBRip-AVC__by_AVP_Studio.mkv Формат : Matroska Версия формата : Version 2 Размер файла : 843 Мбайт Продолжительность : 50 мин. 34 с. Общий битрейт : 2 330 Кбит/сек Частота кадров : 25,000 кадров/сек Дата кодирования : 2024-05-20 13:41:38 UTC Программа кодирования : mkvmerge v6.9.1 ('Blue Panther') 32bit built on Apr 18 2014 18:15:44 Библиотека кодирования : libebml v1.3.0 + libmatroska v1.4.1 Видео Идентификатор : 1 Формат : AVC Формат/Информация : Advanced Video Codec Профиль формата : High@L4.1 Настройки формата : CABAC / 10 Ref Frames Параметр CABAC формата : Да Параметр RefFrames формата : 10 кадров Идентификатор кодека : V_MPEG4/ISO/AVC Продолжительность : 50 мин. 34 с. Битрейт : 2 138 Кбит/сек Ширина : 1 024 пикселя Высота : 576 пикселей Соотношение сторон дисплея : 16:9 Режим частоты кадров : Постоянный Частота кадров : 25,000 кадров/сек Цветовое пространство : YUV Цветовая субдискретизация : 4:2:0 Битовая глубина : 8 бит Тип развёртки : Прогрессивная Бит/(Пиксели*Кадры) : 0.145 Размер потока : 757 Мбайт (90%) Библиотека кодирования : x264 core 164 r3182 be4f020 Параметры библиотеки кодирования : cabac=1 / ref=10 / deblock=1:-3:-2 / analyse=0x3:0x113 / me=umh / subme=10 / psy=1 / psy_rd=1.00:0.00 / mixed_ref=1 / me_range=32 / chroma_me=1 / trellis=2 / 8x8dct=1 / cqm=0 / deadzone=21,11 / fast_pskip=1 / chroma_qp_offset=-2 / threads=6 / lookahead_threads=1 / sliced_threads=0 / nr=0 / decimate=0 / interlaced=0 / bluray_compat=0 / constrained_intra=0 / bframes=8 / b_pyramid=2 / b_adapt=2 / b_bias=0 / direct=3 / weightb=1 / open_gop=0 / weightp=2 / keyint=250 / keyint_min=25 / scenecut=40 / intra_refresh=0 / rc_lookahead=40 / rc=2pass / mbtree=1 / bitrate=2138 / ratetol=1.0 / qcomp=0.60 / qpmin=0 / qpmax=69 / qpstep=4 / cplxblur=20.0 / qblur=0.5 / ip_ratio=1.40 / aq=1:1.00 По умолчанию : Да Принудительно : Нет Аудио Идентификатор : 2 Формат : AC-3 Формат/Информация : Audio Coding 3 Коммерческое название : Dolby Digital Идентификатор кодека : A_AC3 Продолжительность : 50 мин. 34 с. Вид битрейта : Постоянный Битрейт : 192 Кбит/сек Канал(-ы) : 2 канала Расположение каналов : L R Частота дискретизации : 48,0 КГц Частота кадров : 31,250 кадров/сек (1536 SPF) Метод сжатия : С потерями Размер потока : 69,4 Мбайт (8%) По умолчанию : Да Принудительно : Нет
[+] Скриншоты

Всего файлов в раздаче: 8 
Серия 01.mkv842.88 MB
Серия 02.mkv840.56 MB
Серия 03.mkv865.94 MB
Серия 04.mkv835.90 MB
Серия 05.mkv835.64 MB
Серия 06.mkv827.00 MB
Серия 07.mkv830.58 MB
Серия 08.mkv819.26 MB

Похожие раздачи по запросу - Мосгаз
2024-05-23 magnet Мосгаз [S01-10 из 10] (2012-2024) WEB-DLRip, WEBRip от Generalfilm | КПК 15.66 GB ↑ 0 ↓ 0
2024-05-21 magnet Мосгаз Дело №10 Метроном [S10] (2024) WEBRip от New-Team 3.65 GB ↑ 0 ↓ 0
2024-05-19 magnet Мосгаз Дело №9 Последнее дело Черкасова [S09] (2023) WEBRip-AVC от New-Team 6.53 GB ↑ 0 ↓ 0
2024-05-19 magnet Мосгаз Дело №9 Последнее дело Черкасова [S09] (2023) WEBRip от New-Team 3.65 GB ↑ 0 ↓ 0
2024-05-16 magnet Мосгаз. Дело №10: Метроном [S10] (2024) WEBRip от Files-x 5.00 GB ↑ 0 ↓ 0
2024-05-15 magnet Мосгаз. Дело №10: Метроном [S10] (2024) WEBRip 720p от ExKinoRay 9.64 GB ↑ 0 ↓ 0
2024-05-15 magnet Мосгаз. Дело №10: Метроном [S10] (2024) WEBRip-AVC от Files-x 5.03 GB ↑ 1 ↓ 0

Комментарии


Зарегистрируйтесь чтобы добавить комментарий
Торрент клиент
byTorrent - программа для загрузки торрент-файлов.

Скачать byTorrent.exe (1,5 МБ)

Скачать byTorrent.zip (0,6 МБ)

Поддержи torrent.by
российских рублей
(300 российских рублей это 4$)

Обратная связь rss

End game ©