↑↓torrent.by
Поиск
Логин:  Регистрация
Пароль:

Каскадёры / The Fall Guy (2024) WEB-DL 1080p от New-Team | D

download Скачать торрент-файл   magnet Магнитная ссылка Размер: 8.79 GB Раздают: 0 Качают: 8 Добавлен: 2024-05-21 17:00
Пиры будут получены из сети DHT
Последний сидер был замечен сегодня в 11:15
Каскадёры / The Fall Guy Год выпуска: 2024 Выпущено: США, Австралия, Канада / 87North, Australian Government, Management 360, South Australian Film Corporation, Universal Pictures Жанр: Боевик, драма, комедия Режиссер: Дэвид Литч / David Leitch В ролях: Райан Гослинг, Эмили Блант, Аарон Тейлор-Джонсон, Ханна Веддингем, Тереза ​​Палмер, Стефани Сью, Уинстон Дьюк, Бен Найт, Матузе, Адам Данн О фильме: Потрёпанный жизнью каскадёр Колт нехотя возвращается в профессию, чтобы помочь бывшей девушке Джоди снять первый фильм - блокбастер с многомиллионным бюджетом. Ситуация осложняется пропажей исполнителя главной роли. Продолжительность: 02:07:02 Перевод: Профессиональный (полное дублирование) | Bravo Records Georgia / Movie Dubbing Субтитры: Английские Раздача от: Автор релиза: JNS82. Формат: MKV Качество: WEB-DL 1080p | AMZN Видео: MPEG-4 AVC, (2,40:1), 1920x800, 8698 Кбит/с, 23,976 fps Аудио #1: 48 kHz, AC3 Dolby Digital, 3/2 (L,C,R,l,r) + LFE ch, ~ 448 kbps | RUS | Аудио #2: 48 kHz, E-AC3 JOC Dolby Digital, 3/2 (L,C,R,l,r) + LFE ch, ~ 768 kbps | ENG |
[+] MediaInfoОбщее Уникальный идентификатор : 161265932914085658469882762739440756083 (0x7952B05D1E60D7A18FCBE55677C52573) Полное имя : D:TorrentsThe.Fall.Guy.2024.1080p.AMZN_от New-Team.mkv Формат : Matroska Версия формата : Version 4 Размер файла : 8,79 Гбайт Продолжительность : 2 ч. 7 м. Общий поток : 9 910 Кбит/сек Название фильма : The.Fall.Guy.2024.1080p.AMZN_от New-Team Дата кодирования : UTC 2024-05-21 10:13:40 Программа кодирования : mkvmerge v79.0 ('Funeral Pyres') 64-bit Библиотека кодирования : libebml v1.4.4 + libmatroska v1.7.1 Видео Идентификатор : 1 Формат : AVC Формат/Информация : Advanced Video Codec Профиль формата : High@L4 Настройки формата : CABAC / 4 Ref Frames Параметр CABAC формата : Да Параметр RefFrames формата : 4 кадра Идентификатор кодека : V_MPEG4/ISO/AVC Продолжительность : 2 ч. 7 м. Вид битрейта : Постоянный Битрейт : 8 698 Кбит/сек Номинальный битрейт : 10 000 Кбит/сек Ширина : 1 920 пикселей Высота : 800 пикселей Соотношение сторон : 2,40:1 Режим частоты кадров : Постоянный Частота кадров : 23,976 (24000/1001) кадра/сек Цветовое пространство : YUV Субдискретизация насыщенности : 4:2:0 Битовая глубина : 8 бит Тип развёртки : Прогрессивная Бит/(Пиксели*Кадры) : 0.236 Размер потока : 7,72 Гбайт (88%) Язык : English Default : Да Forced : Нет Цветовой диапазон : Limited Основные цвета : BT.709 Характеристики трансфера : BT.709 Коэффициенты матрицы : BT.709 Аудио #1 Идентификатор : 2 Формат : AC-3 Формат/Информация : Audio Coding 3 Коммерческое название : Dolby Digital Идентификатор кодека : A_AC3 Продолжительность : 2 ч. 6 м. Вид битрейта : Постоянный Битрейт : 448 Кбит/сек Каналы : 6 каналов Channel layout : L R C LFE Ls Rs Частота : 48,0 КГц Частота кадров : 31,250 кадров/сек (1536 SPF) Метод сжатия : С потерями Размер потока : 405 Мбайт (4%) Заголовок : DUB - Bravo Records Georgia / Movie Dubbing Язык : Russian Service kind : Complete Main Default : Да Forced : Нет Аудио #2 Идентификатор : 3 Формат : E-AC-3 JOC Формат/Информация : Enhanced AC-3 with Joint Object Coding Коммерческое название : Dolby Digital Plus with Dolby Atmos Идентификатор кодека : A_EAC3 Продолжительность : 2 ч. 6 м. Вид битрейта : Постоянный Битрейт : 768 Кбит/сек Каналы : 6 каналов Channel layout : L R C LFE Ls Rs Частота : 48,0 КГц Частота кадров : 31,250 кадров/сек (1536 SPF) Метод сжатия : С потерями Задержка видео : 13 мс. Размер потока : 694 Мбайт (8%) Заголовок : Original Язык : English Service kind : Complete Main Default : Нет Forced : Нет Complexity index : 16 Number of dynamic objects : 15 Bed channel count : 1 канал Bed channel configuration : LFE Текст #1 Идентификатор : 4 Формат : UTF-8 Идентификатор кодека : S_TEXT/UTF8 Идентификатор кодека/Информация : UTF-8 Plain Text Продолжительность : 2 ч. 6 м. Битрейт : 92 бит/сек Count of elements : 2648 Размер потока : 85,6 Кбайт (0%) Язык : English Default : Нет Forced : Нет Текст #2 Идентификатор : 5 Формат : UTF-8 Идентификатор кодека : S_TEXT/UTF8 Идентификатор кодека/Информация : UTF-8 Plain Text Продолжительность : 2 ч. 6 м. Битрейт : 103 бит/сек Count of elements : 2948 Размер потока : 96,1 Кбайт (0%) Заголовок : SDH Язык : English Default : Нет Forced : Нет Меню 00:00:00.000 : en:Chapter 01 00:05:53.687 : en:Chapter 02 00:11:19.804 : en:Chapter 03 00:16:34.160 : en:Chapter 04 00:21:20.321 : en:Chapter 05 00:27:00.120 : en:Chapter 06 00:35:48.398 : en:Chapter 07 00:40:11.161 : en:Chapter 08 00:44:50.607 : en:Chapter 09 00:54:12.293 : en:Chapter 10 00:59:57.931 : en:Chapter 11 01:06:10.804 : en:Chapter 12 01:12:10.622 : en:Chapter 13 01:18:48.937 : en:Chapter 14 01:27:36.131 : en:Chapter 15 01:32:47.317 : en:Chapter 16 01:40:14.639 : en:Chapter 17 01:45:10.852 : en:Chapter 18 01:50:55.655 : en:Chapter 19 01:59:36.760 : en:Chapter 20

Всего файлов в раздаче: 1 
The.Fall.Guy.2024.1080p.AMZN_от New-Team.mkv8.79 GB

Похожие раздачи по запросу - Каскадёры
2024-06-10 magnet Каскадёры / The Fall Guy (2024) UHD WEB-DL HEVC 2160p | 4K | HDR | Dolby Vision Profile 8 | D, P 24.51 GB ↑ 0 ↓ 5
2024-06-10 magnet Каскадёры / The Fall Guy (2024) UHD WEB-DL HEVC 2160p | 4K | SDR | D, P 16.06 GB ↑ 0 ↓ 3
2024-06-10 magnet Каскадёры / The Fall Guy (2024) UHD WEB-DL HEVC 2160p | 4K | Dolby Vision TV | D, P 15.58 GB ↑ 0 ↓ 2
2024-06-08 magnet Каскадёры / The Fall Guy (2024) WEB-DLRip-AVC от ExKinoRay | D 2.19 GB ↑ 0 ↓ 2
2024-06-01 magnet Каскадёры / Каскадер / The Fall Guy (2024) WEB-DL-HEVC 2160p | 4K | SDR | D | Line | UKR 9.85 GB ↑ 0 ↓ 1
2024-05-31 magnet Каскадёры / The Fall Guy (2024) WEB-DLRip-AVC | D, P 1.09 GB ↑ 0 ↓ 0
2024-05-30 magnet Каскадёры / The Fall Guy (2024) WEB-DL 1080p | D, P 8.97 GB ↑ 2 ↓ 5

Комментарии


Зарегистрируйтесь чтобы добавить комментарий
Торрент клиент
byTorrent - программа для загрузки торрент-файлов.

Скачать byTorrent.exe (1,5 МБ)

Скачать byTorrent.zip (0,6 МБ)

Поддержи torrent.by
российских рублей
(300 российских рублей это 4$)

Обратная связь rss

End game ©