↑↓torrent.by
Поиск
Логин:  Регистрация
Пароль:

Битва в проливе Норян / Noryang: jukeumui bada / Noryang: Deadly Sea (2023) BDRip 1080p от MegaPeer | D

download Скачать торрент-файл   magnet Магнитная ссылка Размер: 13.12 GB Добавлен: 2024-05-22 05:00
Пиры будут получены из сети DHT
Последний сидер был замечен сегодня в 10:00
Информация Название: Битва в проливе Норян Оригинальное название: Noryang: jukeumui bada / Noryang: Deadly Sea Год выхода: 2023 Жанр: Военный, биография, боевик, история Режиссер: Ким Хан-мин В ролях: Ким Юн-сок, Чон Джэ-ён, Пэк Юн-щик, Хо Джун-хо, Лим Иль-гю, Чон Ун-джон, Ли Му-сэн, Чу Сок-тхэ, Ким Джун-хи, Ан Сон-бон Описание: История о морской битве в проливе Норян 16 декабря 1598 года, последней битвы Имджинской войны. Корейский флот из 150 кораблей под предводительством адмирала Ли Сунсина противостоит 500 судам японских агрессоров. Страна: Корея Южная Студия: Acemaker Movie Works, Big Stone Pictures, Lotte Entertainment Продолжительность: 02:32:48 Перевод: Профессиональный (полное дублирование) | Кипарис | Файл Качество: BDRip 1080p Исходник: Noryang.Deadly.Sea.2023.BluRay.1080p.AVC.DTS-HD.MA5.1-MTeam Формат: MKV Кодек: MPEG-4 AVC Видео: 1916x800 (2.40:1), 24 fps, MPEG-4 AVC ~ 10.9 Mbps avg, 0.296 bit/pixel Аудио: AC3, 48 kHz, 6 ch, ~384.00 kbps avg | русский | DUB Аудио: E-AC3, 48 kHz, 6 ch, ~384.00 kbps avg | русский | DUB Аудио: AC3, 48 kHz, 6 ch, ~640.00 kbps avg | корейский | Субтитры: Русские (Forced), Английские (Full), Французские (Forced, Full)
[+] Инфо-файлОбщее Уникальный идентификатор : 250758417336872328999804651141586690882 (0xBCA650817975CEC9806117B5D29F2342) Полное имя : Noryang.Deadly.Sea.2023.1080p.BluRay.DD.5.1.x264-MegaPeer.mkv Формат : Matroska Версия формата : Version 4 Размер файла : 13,1 Гбайт Продолжительность : 2 ч. 32 мин. Общий битрейт : 12,3 Мбит/сек Частота кадров : 24,000 кадра/сек Название фильма : Битва в проливе Норян / Noryang: jukeumui bada / Noryang: Deadly Sea (2023) от stillet@MegaPeer Дата кодирования : 2024-05-21 15:26:35 UTC Программа кодирования : mkvmerge v15.0.0 ('Duel with the Devil') 64-bit Библиотека кодирования : libebml v1.3.5 + libmatroska v1.4.5 Обложка : Yes Attachments : cover.jpg / cover.jpg Видео Идентификатор : 1 Формат : AVC Формат/Информация : Advanced Video Codec Профиль формата : High@L4.1 Настройки формата : CABAC / 5 Ref Frames Параметр CABAC формата : Да Параметр RefFrames формата : 5 кадров Идентификатор кодека : V_MPEG4/ISO/AVC Продолжительность : 2 ч. 32 мин. Битрейт : 10,9 Мбит/сек Ширина : 1 916 пикселей Высота : 800 пикселей Соотношение сторон дисплея : 2,40:1 Режим частоты кадров : Постоянный Частота кадров : 24,000 кадра/сек Цветовое пространство : YUV Цветовая субдискретизация : 4:2:0 Битовая глубина : 8 бит Тип развёртки : Прогрессивная Бит/(Пиксели*Кадры) : 0.296 Размер потока : 11,6 Гбайт (89%) Библиотека кодирования : x264 core 164 r3156+57M stillet t_mod_New Параметры библиотеки кодирования : cabac=1 / ref=5 / deblock=1:-3:-3 / analyse=0x3:0x113 / me=umh / subme=10 / psy=1 / fade_compensate=0.00 / psy_rd=1.03:0.02 / mixed_ref=1 / me_range=32 / chroma_me=1 / trellis=2 / 8x8dct=1 / cqm=0 / deadzone=21,11 / fast_pskip=0 / chroma_qp_offset=-3 / threads=12 / lookahead_threads=3 / sliced_threads=0 / nr=0 / decimate=0 / interlaced=0 / bluray_compat=0 / constrained_intra=0 / fgo=0 / bframes=13 / b_pyramid=2 / b_adapt=2 / b_bias=0 / direct=3 / weightb=1 / open_gop=0 / weightp=2 / keyint=240 / keyint_min=24 / scenecut=40 / intra_refresh=0 / rc_lookahead=40 / rc=2pass / mbtree=0 / bitrate=10881 / ratetol=1.0 / qcomp=0.60 / qpmin=0:0:0 / qpmax=69:69:69 / qpstep=4 / cplxblur=20.0 / qblur=0.5 / vbv_maxrate=50000 / vbv_bufsize=62500 / nal_hrd=none / filler=0 / ip_ratio=1.40 / pb_ratio=1.30 / aq=1:1.10 / aq-sensitivity=10.00 / aq-factor=1.00:1.00:1.00 / aq2=0 / aq3=0 Язык : Английский По умолчанию : Да Принудительно : Нет Аудио #1 Идентификатор : 2 Формат : AC-3 Формат/Информация : Audio Coding 3 Коммерческое название : Dolby Digital Идентификатор кодека : A_AC3 Продолжительность : 2 ч. 32 мин. Вид битрейта : Постоянный Битрейт : 384 Кбит/сек Канал(-ы) : 6 каналов Расположение каналов : L R C LFE Ls Rs Частота дискретизации : 48,0 КГц Частота кадров : 31,250 кадров/сек (1536 SPF) Метод сжатия : С потерями Размер потока : 420 Мбайт (3%) Заголовок : DUB | Кипарис Язык : Русский Вид сервиса : Complete Main По умолчанию : Да Принудительно : Да AC3_metadata cmixlev : -3.0 dB surmixlev : -3 dB Аудио #2 Идентификатор : 3 Формат : E-AC-3 Формат/Информация : Enhanced AC-3 Коммерческое название : Dolby Digital Plus Идентификатор кодека : A_EAC3 Продолжительность : 2 ч. 32 мин. Вид битрейта : Постоянный Битрейт : 384 Кбит/сек Канал(-ы) : 6 каналов Расположение каналов : L R C LFE Ls Rs Частота дискретизации : 48,0 КГц Частота кадров : 31,250 кадров/сек (1536 SPF) Метод сжатия : С потерями Размер потока : 420 Мбайт (3%) Заголовок : DUB | Кипарис Язык : Русский Вид сервиса : Complete Main По умолчанию : Нет Принудительно : Нет Аудио #3 Идентификатор : 4 Формат : AC-3 Формат/Информация : Audio Coding 3 Коммерческое название : Dolby Digital Идентификатор кодека : A_AC3 Продолжительность : 2 ч. 32 мин. Вид битрейта : Постоянный Битрейт : 640 Кбит/сек Канал(-ы) : 6 каналов Расположение каналов : L R C LFE Ls Rs Частота дискретизации : 48,0 КГц Частота кадров : 31,250 кадров/сек (1536 SPF) Метод сжатия : С потерями Размер потока : 699 Мбайт (5%) Язык : Корейский Вид сервиса : Complete Main По умолчанию : Нет Принудительно : Нет AC3_metadata cmixlev : -3.0 dB surmixlev : -3 dB Текст #1 Идентификатор : 5 Формат : UTF-8 Идентификатор кодека : S_TEXT/UTF8 Идентификатор кодека/Информация : UTF-8 Plain Text Продолжительность : 2 ч. 28 мин. Битрейт : 2 бит/сек Частота кадров : 0,004 кадр/сек Число элементов : 38 Размер потока : 3,02 КиБ (0%) Заголовок : Forced Язык : Русский По умолчанию : Да Принудительно : Да Текст #2 Идентификатор : 6 Формат : UTF-8 Идентификатор кодека : S_TEXT/UTF8 Идентификатор кодека/Информация : UTF-8 Plain Text Продолжительность : 2 ч. 30 мин. Битрейт : 28 бит/сек Частота кадров : 0,136 кадр/сек Число элементов : 1228 Размер потока : 31,3 КиБ (0%) Заголовок : Full Язык : Английский По умолчанию : Нет Принудительно : Нет Текст #3 Идентификатор : 7 Формат : UTF-8 Идентификатор кодека : S_TEXT/UTF8 Идентификатор кодека/Информация : UTF-8 Plain Text Продолжительность : 2 ч. 28 мин. Битрейт : 2 бит/сек Частота кадров : 0,008 кадр/сек Число элементов : 74 Размер потока : 2,33 КиБ (0%) Заголовок : Forced Язык : Французский По умолчанию : Нет Принудительно : Нет Текст #4 Идентификатор : 8 Формат : UTF-8 Идентификатор кодека : S_TEXT/UTF8 Идентификатор кодека/Информация : UTF-8 Plain Text Продолжительность : 2 ч. 30 мин. Битрейт : 31 бит/сек Частота кадров : 0,140 кадр/сек Число элементов : 1269 Размер потока : 34,5 КиБ (0%) Заголовок : Full Язык : Французский По умолчанию : Нет Принудительно : Нет Меню 00:00:00.000 : Chapter 01 00:12:31.875 : Chapter 02 00:21:50.666 : Chapter 03 00:30:36.791 : Chapter 04 00:44:19.333 : Chapter 05 00:52:48.583 : Chapter 06 01:04:24.291 : Chapter 07 01:17:07.916 : Chapter 08 01:27:55.750 : Chapter 09 01:38:26.458 : Chapter 10 01:49:35.041 : Chapter 11 01:58:42.708 : Chapter 12 02:11:34.875 : Chapter 13 02:23:16.000 : Chapter 14
Релиз: НЕ ПРОПУСТИТЕ СЦЕНУ ПОСЛЕ ФИНАЛЬНЫХ ТИТРОВ

Всего файлов в раздаче: 1 
Noryang.Deadly.Sea.2023.1080p.BluRay.DD.5.1.x264-MegaPeer.mkv13.12 GB

Похожие раздачи по запросу - Битва
2024-06-17 magnet Новая Битва экстрасенсов [24х01-13] (2024) WEBRip 720p от Files-x 17.53 GB ↑ 0 ↓ 0
2024-06-10 magnet Новая Битва экстрасенсов [24х01-12] (2024) WEBRip 1080p от Files-x 35.90 GB ↑ 0 ↓ 0
2024-06-10 magnet Новая Битва экстрасенсов [24х01-12] (2024) WEBRip 720p от Files-x 15.84 GB ↑ 0 ↓ 0
2024-06-03 magnet Новая Битва экстрасенсов [24х01-11] (2024) WEBRip 720p от Files-x 14.37 GB ↑ 0 ↓ 0
2024-06-03 magnet Новая Битва экстрасенсов [24х01-11] (2024) WEBRip от Files-x 13.40 GB ↑ 0 ↓ 0
2024-06-01 magnet Павел Вяч - Битва за Порог. Монах 1. За порог (2024) МР3 320.22 MB ↑ 0 ↓ 0
2024-05-27 magnet Новая Битва экстрасенсов [24х01-10] (2024) WEBRip от Files-x 12.24 GB ↑ 0 ↓ 0

Кто качает (только для создателя раздачи и модераторов): Локальные пиры отсутствуют

Комментарии


Зарегистрируйтесь чтобы добавить комментарий
Торрент клиент
byTorrent - программа для загрузки торрент-файлов.

Скачать byTorrent.exe (1,5 МБ)

Скачать byTorrent.zip (0,6 МБ)

Поддержи torrent.by
российских рублей
(300 российских рублей это 4$)

Обратная связь rss

End game ©