↑↓torrent.by
Поиск
Логин:  Регистрация
Пароль:

Обыкновенные ангелы / Ordinary Angels (2024) WEB-DLRip-AVC от New-Team | P2 | ViruseProject

download Скачать торрент-файл   magnet Магнитная ссылка Размер: 2.18 GB Раздают: 0 Качают: 19 Добавлен: 2024-05-22 05:00
Пиры будут получены из сети DHT
Последний сидер был замечен вчера в 09:19
Обыкновенные ангелы / Ordinary Angels Год выпуска: 2024 Выпущено: США / Green Hummingbird Entertainment, Kingdom Story Company, Stampede Ventures, Stolen Sky Productions, Vertigo Entertainment Жанр: драма Режиссер: Джон Ганн / Jon Gunn В ролях: Хилари Суэнк, Алан Ричсон, Нэнси Трэвис, Эми Экер, Тамала Джонс, Дрю Пауэлл, Стефани Си, Нэнси Сорел, Эрик Атхавале, Райан Аллен, Дэвид Браун, Дарси Фер, Скайуокер Хьюз, Эмили Митчелл, Андреа дель Кампо, Дон Майк О фильме: Вдохновляющая история о вере, повседневных чудесах и обыкновенных ангелах. Парикмахер из маленького городка Кентукки Шэрон Стивенс встречает Эда Шмитта, овдовевшего отца двух дочерей. Чтобы помочь Эду спасти жизнь его критически больной маленькой дочери, Шэрон решает сделать всё от неё возможное... Продолжительность: 01:57:47 Перевод: Профессиональный (двухголосый, закадровый) | ViruseProject Субтитры: Русские (full (ViruseProject)), английские (SDH) Раздача от: Автор релиза: JNS82. Формат: MKV Качество: WEB-DLRip-AVC Видео: MPEG-4 AVC, x264, 1024x426, 2069 Кбит/с, (2,40:1), 23,976 fps Аудио #1: 48 kHz, AC3 Dolby Digital, 2/0 (L,R) ch, ~ 192 kbps | RUS | Аудио #2: 48 kHz, AC3 Dolby Digital, 3/2 (L,C,R,l,r) + LFE ch, ~ 384 kbps | ENG |
[+] MediaInfoОбщее Уникальный идентификатор : 34374743800872855279684486049577545217 (0x19DC55B82F17663229D9B1729D23AE01) Полное имя : D:TorrentsOrdinary.Angels.2024.WEB-DLRip-AVC_от New-Team_by_JNS82.mkv Формат : Matroska Версия формата : Version 4 Размер файла : 2,18 Гбайт Продолжительность : 1 ч. 57 м. Общий поток : 2 645 Кбит/сек Название фильма : Ordinary.Angels.2024.WEB-DLRip-AVC_от New-Team_by_JNS82 Дата кодирования : UTC 2024-05-21 18:14:05 Программа кодирования : mkvmerge v79.0 ('Funeral Pyres') 64-bit Библиотека кодирования : libebml v1.4.4 + libmatroska v1.7.1 Видео Идентификатор : 1 Формат : AVC Формат/Информация : Advanced Video Codec Профиль формата : High@L4.1 Настройки формата : CABAC / 12 Ref Frames Параметр CABAC формата : Да Параметр RefFrames формата : 12 кадров Идентификатор кодека : V_MPEG4/ISO/AVC Продолжительность : 1 ч. 57 м. Битрейт : 2 069 Кбит/сек Ширина : 1 024 пикселя Высота : 426 пикселей Соотношение сторон : 2,40:1 Режим частоты кадров : Постоянный Частота кадров : 23,976 (24000/1001) кадра/сек Цветовое пространство : YUV Субдискретизация насыщенности : 4:2:0 Битовая глубина : 8 бит Тип развёртки : Прогрессивная Бит/(Пиксели*Кадры) : 0.198 Размер потока : 1,70 Гбайт (78%) Библиотека кодирования : x264 core 164 r3156+57M NewTeam t_mod_New Настройки программы : cabac=1 / ref=12 / deblock=1:-2:-2 / analyse=0x3:0x113 / me=umh / subme=10 / psy=1 / fade_compensate=0.00 / psy_rd=1.05:0.05 / mixed_ref=1 / me_range=32 / chroma_me=1 / trellis=2 / 8x8dct=1 / cqm=0 / deadzone=21,11 / fast_pskip=0 / chroma_qp_offset=-3 / threads=13 / lookahead_threads=2 / sliced_threads=0 / nr=0 / decimate=0 / interlaced=0 / bluray_compat=0 / constrained_intra=0 / fgo=0 / bframes=9 / b_pyramid=2 / b_adapt=2 / b_bias=0 / direct=3 / weightb=1 / open_gop=0 / weightp=2 / keyint=240 / keyint_min=24 / scenecut=40 / intra_refresh=0 / rc_lookahead=60 / rc=2pass / mbtree=0 / bitrate=2069 / ratetol=1.0 / qcomp=0.60 / qpmin=0:0:0 / qpmax=69:69:69 / qpstep=5 / cplxblur=20.0 / qblur=0.5 / vbv_maxrate=50000 / vbv_bufsize=62500 / nal_hrd=none / filler=0 / ip_ratio=1.35 / pb_ratio=1.25 / aq=1:1.00 / aq-sensitivity=10.00 / aq-factor=1.00:1.00:1.00 / aq2=0 / aq3=0 Язык : English Default : Да Forced : Нет Аудио #1 Идентификатор : 2 Формат : AC-3 Формат/Информация : Audio Coding 3 Коммерческое название : Dolby Digital Идентификатор кодека : A_AC3 Продолжительность : 1 ч. 57 м. Вид битрейта : Постоянный Битрейт : 192 Кбит/сек Каналы : 2 канала Channel layout : L R Частота : 48,0 КГц Частота кадров : 31,250 кадров/сек (1536 SPF) Метод сжатия : С потерями Размер потока : 162 Мбайт (7%) Заголовок : DVO - ViruseProject Язык : Russian Service kind : Complete Main Default : Да Forced : Нет Аудио #2 Идентификатор : 3 Формат : AC-3 Формат/Информация : Audio Coding 3 Коммерческое название : Dolby Digital Идентификатор кодека : A_AC3 Продолжительность : 1 ч. 57 м. Вид битрейта : Постоянный Битрейт : 384 Кбит/сек Каналы : 6 каналов Channel layout : L R C LFE Ls Rs Частота : 48,0 КГц Частота кадров : 31,250 кадров/сек (1536 SPF) Метод сжатия : С потерями Размер потока : 324 Мбайт (15%) Заголовок : Original Язык : English Service kind : Complete Main Default : Нет Forced : Нет Текст #1 Идентификатор : 4 Формат : UTF-8 Идентификатор кодека : S_TEXT/UTF8 Идентификатор кодека/Информация : UTF-8 Plain Text Продолжительность : 1 ч. 52 м. Битрейт : 103 бит/сек Count of elements : 1966 Размер потока : 84,8 Кбайт (0%) Заголовок : Язык : Russian Default : Нет Forced : Нет Текст #2 Идентификатор : 5 Формат : UTF-8 Идентификатор кодека : S_TEXT/UTF8 Идентификатор кодека/Информация : UTF-8 Plain Text Продолжительность : 1 ч. 56 м. Битрейт : 79 бит/сек Count of elements : 2180 Размер потока : 67,8 Кбайт (0%) Заголовок : Язык : English Default : Нет Forced : Нет

Всего файлов в раздаче: 1 
Ordinary.Angels.2024.WEB-DLRip-AVC_от New-Team_by_JNS82.mkv2.18 GB

Похожие раздачи по запросу - Обыкновенные
2024-06-09 magnet Обыкновенные ангелы / Ordinary Angels (2024) BDRip от New-Team | P 1.46 GB ↑ 0 ↓ 13
2024-05-25 magnet Обыкновенные ангелы / Ordinary Angels (2024) BDRip от New-Team | P2 | ViruseProject 1.46 GB ↑ 0 ↓ 3
2024-05-22 magnet Обыкновенные ангелы / Ordinary Angels (2024) WEB-DL 1080p | ViruseProject 8.52 GB ↑ 1 ↓ 36

Комментарии


Зарегистрируйтесь чтобы добавить комментарий
Торрент клиент
byTorrent - программа для загрузки торрент-файлов.

Скачать byTorrent.exe (1,5 МБ)

Скачать byTorrent.zip (0,6 МБ)

Поддержи torrent.by
российских рублей
(300 российских рублей это 4$)

Обратная связь rss

End game ©