↑↓torrent.by
Поиск
Логин:  Регистрация
Пароль:

Каскадёры / The Fall Guy (2024) WEB-DLRip 1080p от селезень | D

download Скачать торрент-файл   magnet Магнитная ссылка Размер: 7.43 GB Раздают: 0 Качают: 1 Добавлен: 2024-05-22 05:00
Пиры будут получены из сети DHT
Последний сидер был замечен сегодня в 05:59
Информация о фильме Название: Каскадёры Оригинальное название: The Fall Guy Год выхода: 2024 Жанр: Боевик, драма, комедия Режиссер: Дэвид Литч В ролях: Райан Гослинг, Эмили Блант, Аарон Тейлор-Джонсон, Ханна Веддингем, Тереза ​​Палмер, Стефани Сью, Уинстон Дьюк, Бен Найт, Матузе, Адам Данн О фильме: Потрёпанный жизнью каскадёр Колт нехотя возвращается в профессию, чтобы помочь бывшей девушке Джоди снять первый фильм - блокбастер с многомиллионным бюджетом. Ситуация осложняется пропажей исполнителя главной роли. Страна: США, Австралия, Канада Студия: 87North, Australian Government, Management 360, South Australian Film Corporation, Universal Pictures Продолжительность: 02:07:02 Перевод: Дублированный (Bravo Records Georgia / Movie Dubbing) Субтитры: Русские (Forced), Английские Файл Качество: WEB-DLRip 1080p | Исх.The.Fall.Guy.2024.REPACK.2160p.AMZN.WEB-DL.DDP5.1.Atmos.H.265-FLUX Формат: MKV Видео: 1920x800, 23.976 fps, MPEG-4 AVC, ~7475 Kbps Аудио 1: AC3, 6 ch, ~448 kbps - | Русский | Аудио 2: AC3, 6 ch, ~448 kbps - | Английский | Формат субтитров: softsub (SRT)
[+] M/IGeneral Unique ID : 207972924811495646378595243502119261586 (0x9C7620DBA6F1BC8815B78338F3159592) Complete name : H:VideoHThe.Fall.Guy.2024.DUB.WEB-DLRip.1080p.x264.seleZen.mkv Format : Matroska Format version : Version 4 File size : 7.43 GiB Duration : 2 h 7 min Overall bit rate : 8 369 kb/s Frame rate : 23.976 FPS Movie name : The.Fall.Guy.2024.DUB.WEB-DLRip.1080..x264.seleZen Encoded date : 2024-05-21 16:19:44 UTC Writing application : mkvmerge v80.0 ('Roundabout') 64-bit Writing library : libebml v1.4.4 + libmatroska v1.7.1 Cover : Yes Attachments : cover.jpg / small_cover.jpg Video ID : 1 Format : AVC Format/Info : Advanced Video Codec Format profile : High@L4.1 Format settings : CABAC / 5 Ref Frames Format settings, CABAC : Yes Format settings, Reference : 5 frames Codec ID : V_MPEG4/ISO/AVC Duration : 2 h 7 min Bit rate : 7 475 kb/s Width : 1 920 pixels Height : 800 pixels Display aspect ratio : 2.40:1 Frame rate mode : Constant Frame rate : 23.976 (24000/1001) FPS Color space : YUV Chroma subsampling : 4:2:0 Bit depth : 8 bits Scan type : Progressive Bits/(Pixel*Frame) : 0.203 Stream size : 6.63 GiB (89%) Writing library : x264 core 164 r3164 seleZen Encoding settings : cabac=1 / ref=5 / deblock=1:-2:-2 / analyse=0x3:0x133 / me=umh / subme=10 / psy=1 / psy_rd=1.00:0.00 / mixed_ref=1 / me_range=32 / chroma_me=1 / trellis=2 / 8x8dct=1 / cqm=0 / deadzone=21,11 / fast_pskip=0 / chroma_qp_offset=-2 / threads=25 / lookahead_threads=4 / sliced_threads=0 / nr=0 / decimate=0 / interlaced=0 / bluray_compat=0 / constrained_intra=0 / bframes=9 / b_pyramid=2 / b_adapt=2 / b_bias=0 / direct=1 / weightb=1 / open_gop=0 / weightp=2 / keyint=240 / keyint_min=23 / scenecut=40 / intra_refresh=0 / rc_lookahead=60 / rc=crf / mbtree=0 / crf=18.6 / qcomp=0.60 / qpmin=0 / qpmax=51 / qpstep=4 / vbv_maxrate=50000 / vbv_bufsize=62500 / crf_max=0.0 / nal_hrd=none / filler=0 / ip_ratio=1.40 / pb_ratio=1.30 / aq=3:0.80 Language : English Default : Yes Forced : No Audio #1 ID : 2 Format : AC-3 Format/Info : Audio Coding 3 Commercial name : Dolby Digital Codec ID : A_AC3 Duration : 2 h 6 min Bit rate mode : Constant Bit rate : 448 kb/s Channel(s) : 6 channels Channel layout : L R C LFE Ls Rs Sampling rate : 48.0 kHz Frame rate : 31.250 FPS (1536 SPF) Compression mode : Lossy Stream size : 405 MiB (5%) Title : DUB - Bravo Records Georgia / Movie Dubbing Language : Russian Service kind : Complete Main Default : Yes Forced : No Audio #2 ID : 3 Format : AC-3 Format/Info : Audio Coding 3 Commercial name : Dolby Digital Codec ID : A_AC3 Duration : 2 h 6 min Bit rate mode : Constant Bit rate : 448 kb/s Channel(s) : 6 channels Channel layout : L R C LFE Ls Rs Sampling rate : 48.0 kHz Frame rate : 31.250 FPS (1536 SPF) Compression mode : Lossy Stream size : 405 MiB (5%) Title : Original Language : English Service kind : Complete Main Default : No Forced : No Text #1 ID : 4 Format : UTF-8 Codec ID : S_TEXT/UTF8 Codec ID/Info : UTF-8 Plain Text Duration : 2 h 4 min Bit rate : 5 b/s Frame rate : 0.014 FPS Count of elements : 102 Stream size : 5.22 KiB (0%) Title : Forced Language : Russian Default : No Forced : No Text #2 ID : 5 Format : UTF-8 Codec ID : S_TEXT/UTF8 Codec ID/Info : UTF-8 Plain Text Duration : 2 h 6 min Bit rate : 92 b/s Frame rate : 0.350 FPS Count of elements : 2648 Stream size : 85.6 KiB (0%) Language : English (US) Default : No Forced : No Text #3 ID : 6 Format : UTF-8 Codec ID : S_TEXT/UTF8 Codec ID/Info : UTF-8 Plain Text Duration : 2 h 6 min Bit rate : 103 b/s Frame rate : 0.389 FPS Count of elements : 2948 Stream size : 96.1 KiB (0%) Title : SDH Language : English (US) Default : No Forced : No Menu 00:00:00.000 : en:Chapter 01 00:05:53.687 : en:Chapter 02 00:11:19.804 : en:Chapter 03 00:16:34.160 : en:Chapter 04 00:21:20.321 : en:Chapter 05 00:27:00.120 : en:Chapter 06 00:35:48.398 : en:Chapter 07 00:40:11.161 : en:Chapter 08 00:44:50.607 : en:Chapter 09 00:54:12.293 : en:Chapter 10 00:59:57.931 : en:Chapter 11 01:06:10.804 : en:Chapter 12 01:12:10.622 : en:Chapter 13 01:18:48.937 : en:Chapter 14 01:27:36.131 : en:Chapter 15 01:32:47.317 : en:Chapter 16 01:40:14.639 : en:Chapter 17 01:45:10.852 : en:Chapter 18 01:50:55.655 : en:Chapter 19 01:59:36.760 : en:Chapter 20
Релиз: Присоединяйся к: Кликай на баннеры.

Всего файлов в раздаче: 1 
The.Fall.Guy.2024.DUB.WEB-DLRip.1080p.x264.seleZen.mkv7.43 GB

Похожие раздачи по запросу - Каскадёры
2024-06-10 magnet Каскадёры / The Fall Guy (2024) UHD WEB-DL HEVC 2160p | 4K | HDR | Dolby Vision Profile 8 | D, P 24.51 GB ↑ 0 ↓ 4
2024-06-10 magnet Каскадёры / The Fall Guy (2024) UHD WEB-DL HEVC 2160p | 4K | SDR | D, P 16.06 GB ↑ 0 ↓ 3
2024-06-10 magnet Каскадёры / The Fall Guy (2024) UHD WEB-DL HEVC 2160p | 4K | Dolby Vision TV | D, P 15.58 GB ↑ 0 ↓ 7
2024-06-08 magnet Каскадёры / The Fall Guy (2024) WEB-DLRip-AVC от ExKinoRay | D 2.19 GB ↑ 0 ↓ 3
2024-06-01 magnet Каскадёры / Каскадер / The Fall Guy (2024) WEB-DL-HEVC 2160p | 4K | SDR | D | Line | UKR 9.85 GB ↑ 0 ↓ 1
2024-05-31 magnet Каскадёры / The Fall Guy (2024) WEB-DLRip-AVC | D, P 1.09 GB ↑ 0 ↓ 1
2024-05-30 magnet Каскадёры / The Fall Guy (2024) WEB-DL 1080p | D, P 8.97 GB ↑ 1 ↓ 10

Кто качает (только для создателя раздачи и модераторов):
ПользовательIP:портОтдалПринялОстатокСидируетТоррент клиентОбновился
1 Аноним 135.234.239.193:47067 0.00 B 0.00 B 8589934592.00 GB нет -qB4390- 20:43 2024-06-17

Комментарии


Зарегистрируйтесь чтобы добавить комментарий
Торрент клиент
byTorrent - программа для загрузки торрент-файлов.

Скачать byTorrent.exe (1,5 МБ)

Скачать byTorrent.zip (0,6 МБ)

Поддержи torrent.by
российских рублей
(300 российских рублей это 4$)

Обратная связь rss

End game ©