↑↓torrent.by
Поиск
Логин:  Регистрация
Пароль:

Золото Умальты [2024, приключения, вестерн, драма, WEBRip 1080p]

download Скачать торрент-файл   magnet Магнитная ссылка Размер: 4.09 GB Раздают: 1 Качают: 0 Добавлен: il68k 2024-05-22 10:35
Пиры будут получены из сети DHT
Последний сидер был замечен сегодня в 08:52
Золото Умальты (2024)
Производство: Россия / Открытая киностудия «Лендок» Жанр: приключения, вестерн, драма Режиссер: Андрей Богатырев Актеры: Александр Самойленко, Артём Ткаченко, Алексей Шевченков, Софья Эрнст, Павел Деревянко, Евгений Антропов, Вольфганг Черни, Иван Купреенко, Дмитрий Хасис, Андрей Богатырев Описание: Канун революции 1917 года, Хабаровский край, окрестности реки Умальты. Люди в шаманских масках нападают на обоз, убивают охрану и похищают 40 пудов золота. Петроградский золотопромышленник Булыгин теряет все свои сбережения и вернуть золото — его единственный шанс остаться на плаву. Он едет в Хабаровск и набирает отряд головорезов. Возраст: 16+ (зрителям, достигшим 16 лет) Релиз от: NNMClub Продолжительность: 01:49:21 Качество видео: WEBRip 1080p Перевод: Не требуется (Русский) Субтитры: Отсутствуют Видео: AVC/H.264, 1920x804, ~5000 kbps Аудио: AC3, 6 ch, 48 kHz, 384 Kbps
[+] MediaInfo
Общее
Уникальный идентификатор                 : 193967919673253688683867382646934792507 (0x91ECDCCB280E742FBB398DB9A5AEE93B)
Полное имя                               : Золото.Умальты.2024.WEBRip..NNMClub.mkv
Формат                                   : Matroska
Версия формата                           : Version 4
Размер файла                             : 4,09 Гбайт
Продолжительность                        : 1 ч. 49 м.
Общий поток                              : 5354 Кбит/сек
Название фильма                          : Золото.Умальты.2024.WEBRip..NNMClub
Дата кодирования                         : UTC 2024-05-22 03:17:44
Программа кодирования                    : mkvmerge v8.3.0 ('Over the Horizon') 64bit
Библиотека кодирования                   : libebml v1.3.1 + libmatroska v1.4.2

Видео
Идентификатор                            : 1
Формат                                   : AVC
Формат/Информация                        : Advanced Video Codec
Профиль формата                          : High@L4
Настройки формата                        : CABAC / 3 Ref Frames
Параметр CABAC формата                   : Да
Параметр RefFrames формата               : 3 кадра
Идентификатор кодека                     : V_MPEG4/ISO/AVC
Продолжительность                        : 1 ч. 49 м.
Битрейт                                  : 5000 Кбит/сек
Ширина                                   : 1920 пикселей
Высота                                   : 804 пикселя
Соотношение сторон                       : 2,40:1
Режим частоты кадров                     : Постоянный
Частота кадров                           : 25,000 кадров/сек
Цветовое пространство                    : YUV
Субдискретизация насыщенности            : 4:2:0
Битовая глубина                          : 8 бит
Тип развёртки                            : Прогрессивная
Бит/(Пиксели*Кадры)                      : 0.130
Размер потока                            : 3,80 Гбайт (93%)
Библиотека кодирования                   : x264 core 164 r3095 baee400
Настройки программы                      : cabac=1 / ref=4 / deblock=1:-1:-1 / analyse=0x3:0x133 / me=umh / subme=9 / psy=1 / psy_rd=0.40:1.00 / mixed_ref=1 / me_range=24 / chroma_me=1 / trellis=0 / 8x8dct=1 / cqm=0 / deadzone=21,11 / fast_pskip=1 / chroma_qp_offset=-2 / threads=3 / lookahead_threads=1 / sliced_threads=0 / nr=0 / decimate=1 / interlaced=0 / bluray_compat=0 / stitchable=1 / constrained_intra=0 / bframes=8 / b_pyramid=1 / b_adapt=0 / b_bias=0 / direct=3 / weightb=1 / open_gop=0 / weightp=2 / keyint=75 / keyint_min=38 / scenecut=0 / intra_refresh=0 / rc_lookahead=40 / rc=2pass / mbtree=1 / bitrate=5000 / ratetol=1.0 / qcomp=0.80 / qpmin=1 / qpmax=69 / qpstep=4 / cplxblur=20.0 / qblur=0.5 / vbv_maxrate=7500 / vbv_bufsize=10000 / nal_hrd=none / filler=0 / ip_ratio=1.40 / aq=1:1.00
Язык                                     : Russian
Default                                  : Да
Forced                                   : Нет
Цветовой диапазон                        : Limited
Основные цвета                           : BT.709
Характеристики трансфера                 : BT.709
Коэффициенты матрицы                     : BT.709

Аудио
Идентификатор                            : 2
Формат                                   : AC-3
Формат/Информация                        : Audio Coding 3
Коммерческое название                    : Dolby Digital
Идентификатор кодека                     : A_AC3
Продолжительность                        : 1 ч. 49 м.
Вид битрейта                             : Постоянный
Битрейт                                  : 384 Кбит/сек
Каналы                                   : 6 каналов
ChannelLayout                            : L R C LFE Ls Rs
Частота                                  : 48,0 КГц
Частота кадров                           : 31,250 кадров/сек (1536 SPF)
Битовая глубина                          : 16 бит
Метод сжатия                             : С потерями
Размер потока                            : 300 Мбайт (7%)
Язык                                     : Russian
ServiceKind/String                       : Complete Main
Default                                  : Да
Forced                                   : Нет

Текст
Идентификатор                            : 3
Формат                                   : UTF-8
Идентификатор кодека                     : S_TEXT/UTF8
Идентификатор кодека/Информация          : UTF-8 Plain Text
Продолжительность                        : 1 ч. 49 м.
Битрейт                                  : 42 бит/сек
ElementCount                             : 1014
Размер потока                            : 34,4 Кбайт (0%)
Язык                                     : English
Default                                  : Нет
Forced                                   : Нет
[+] Скриншоты

Всего файлов в раздаче: 1 
Золото.Умальты.2024.WEBRip.[1080p].NNMClub.mkv4.09 GB

Похожие раздачи по запросу - Золото
2024-05-28 magnet Кровь и золото / Blood & Gold (2023) WEB-DLRip-AVC от DoMiNo & селезень | P | NewStudio 1.45 GB ↑ 0 ↓ 0
2024-05-23 magnet Золото Умальты (2024) WEBRip 747.39 MB ↑ 0 ↓ 0
2024-05-23 magnet Золото Умальты (2024) WEBRip от Generalfilm | КПК 415.63 MB ↑ 0 ↓ 0
2024-05-23 magnet Золото Умальты [2024, приключения, вестерн, драма, WEBRip-AVC] 1.46 GB ↑ 29 ↓ 0
2024-05-23 magnet Золото Умальты (2024) WEBRip 720p от DoMiNo & селезень | OKKO 2.20 GB ↑ 1 ↓ 0
2024-05-22 magnet Ольга Погодина-Кузмина / Золото Умальты (2024) [MP3, Алексей Багдасаров] 206.66 MB ↑ 0 ↓ 0
2024-05-22 magnet Золото Умальты (2024) WEBRip от MegaPeer 1.46 GB ↑ 0 ↓ 0

Комментарии


Зарегистрируйтесь чтобы добавить комментарий
Торрент клиент
byTorrent - программа для загрузки торрент-файлов.

Скачать byTorrent.exe (1,5 МБ)

Скачать byTorrent.zip (0,6 МБ)

Поддержи torrent.by
российских рублей
(300 российских рублей это 4$)

Обратная связь rss

End game ©