↑↓torrent.by
Поиск
Логин:  Регистрация
Пароль:

Сёстры [03x01-09 из 13] (2024) WEBRip 2160p от ExKinoRay | 4K | SDR

download Скачать торрент-файл   magnet Магнитная ссылка Размер: 28.41 GB Добавлен: 2024-05-22 11:00
Пиры будут получены из сети DHT
Последний сидер был замечен 2024-05-22 11:00
Информация о фильме Название: Сёстры Год выхода: 2024 Жанр: Комедия, мелодрама Режиссер: Илья Силаев В ролях: Ангелина Миримская, Анна Котова (II), Ангелина Стречина, Антон Филипенко, Александр Обласов, Николай Шрайбер, Артём Ткаченко, Янина Студилина, Мария Лобанова, Георгий Дронов, Анна Шепелева, Максим Костромыкин, Елена Грук-Чернова, Сергей Погосян, Вадим Ракитин О фильме: Три сестры из Саратова, неожиданно унаследовавшие отцовский автосервис, наконец примирились друг с другом. Но семейное воссоединение не избавляет от всех проблем. Решительная Маша рассталась с мужем и теперь открыта новым чувствам. Чуткая Оля не знает, кого выбрать из двух мужчин. Любовному счастью активной Иры вновь мешает прошлое, в этот раз — не ее. Чтобы все уладить, девушкам придется проявить упорство, хитрость, обаяние. Но главное — не забыть о своих сотрудниках, которым предстоят не менее сложные профессиональные вызовы. Страна: Россия Студия: START Studio Перевод: Не требуется Файл Формат: MPEG Качество: WEBRip 2160p Видео: 3840x2160, ~ 19.6 Mбит/с, 0.092 bit/pixel, 25 Кадр/с, 8 бит Аудио: AC3, 256 ch, 384 Кбит/с RUS Продолжительность: 9 х ~ 00:26:00 Язык: Русский Субтитры: Русские (SDH) Для слабослышащих Реклама: Отсутствует
[+] МИ General Unique ID : 281314417088484616792913338011150829230 (0xD3A32F9B75529F181B76879CF4E1C6AE) Complete name : G:Sestry.S03.2024.WEB-DL.2160p.ExKinoRaySestry.S03.E01.2024.WEB-DL.2160p.ExKinoRay.mkv Format : Matroska Format version : Version 4 File size : 3.29 GiB Duration : 24 min 29 s Overall bit rate : 19.3 Mb/s Encoded date : UTC 2024-04-03 12:19:45 Writing application : mkvmerge v56.1.0 ('My Friend') 64-bit Writing library : libebml v1.4.2 + libmatroska v1.6.4 Video ID : 1 Format : AVC Format/Info : Advanced Video Codec Format profile : High@L5.1 Format settings : CABAC / 4 Ref Frames Format settings, CABAC : Yes Format settings, Reference frames : 4 frames Codec ID : V_MPEG4/ISO/AVC Duration : 24 min 29 s Bit rate : 19.0 Mb/s Nominal bit rate : 20.0 Mb/s Width : 3 840 pixels Height : 2 160 pixels Display aspect ratio : 16:9 Frame rate mode : Constant Frame rate : 25.000 FPS Color space : YUV Chroma subsampling : 4:2:0 Bit depth : 8 bits Scan type : Progressive Bits/(Pixel*Frame) : 0.092 Stream size : 3.25 GiB (99%) Writing library : x264 core 164 Encoding settings : cabac=1 / ref=2 / deblock=1:0:0 / analyse=0x3:0x113 / me=dia / subme=6 / psy=1 / psy_rd=0.00:0.00 / mixed_ref=1 / me_range=16 / chroma_me=1 / trellis=1 / 8x8dct=1 / cqm=0 / deadzone=21,11 / fast_pskip=1 / chroma_qp_offset=0 / threads=12 / lookahead_threads=2 / sliced_threads=0 / nr=0 / decimate=1 / interlaced=0 / bluray_compat=0 / constrained_intra=0 / bframes=3 / b_pyramid=2 / b_adapt=1 / b_bias=0 / direct=1 / weightb=1 / open_gop=0 / weightp=0 / keyint=250 / keyint_min=25 / scenecut=40 / intra_refresh=0 / rc_lookahead=30 / rc=cbr / mbtree=1 / bitrate=20000 / ratetol=1.0 / qcomp=0.50 / qpmin=0 / qpmax=69 / qpstep=4 / vbv_maxrate=20000 / vbv_bufsize=26000 / nal_hrd=none / filler=0 / ip_ratio=1.00 / aq=2:0.50 Language : Russian Default : Yes Forced : No Color range : Limited Color primaries : BT.709 Transfer characteristics : BT.709 Matrix coefficients : BT.709 Audio ID : 2 Format : AC-3 Format/Info : Audio Coding 3 Commercial name : Dolby Digital Codec ID : A_AC3 Duration : 24 min 29 s Bit rate mode : Constant Bit rate : 256 kb/s Channel(s) : 2 channels Channel layout : L R Sampling rate : 48.0 kHz Frame rate : 31.250 FPS (1536 SPF) Compression mode : Lossy Stream size : 44.8 MiB (1%) Language : Russian Service kind : Complete Main Default : Yes Forced : No Text ID : 3 Format : UTF-8 Codec ID : S_TEXT/UTF8 Codec ID/Info : UTF-8 Plain Text Duration : 23 min 42 s Bit rate : 114 b/s Frame rate : 0.219 FPS Count of elements : 311 Stream size : 19.8 KiB (0%) Language : Russian Default : No Forced : No
[+] Скриншоты
Релиз от:

Всего файлов в раздаче: 9 
Sestry.S03.E01.2024.WEB-DL.2160p.ExKinoRay.mkv3.29 GB
Sestry.S03.E02.2024.WEB-DL.2160p.ExKinoRay.mkv3.29 GB
Sestry.S03.E03.2024.WEB-DL.2160p.ExKinoRay.mkv3.38 GB
Sestry.S03.E04.2024.WEB-DL.2160p.ExKinoRay.mkv3.38 GB
Sestry.S03.E05.2024.WEB-DL.2160p.ExKinoRay.mkv3.39 GB
Sestry.S03.E06.2024.WEB-DL.2160p.ExKinoRay.mkv3.20 GB
Sestry.S03.E07.2024.WEB-DL.2160p.ExKinoRay.mkv2.82 GB
Sestry.S03.E08.2024.WEB-DL.2160p.ExKinoRay.mkv2.85 GB
Sestry.S03.E09.2024.WEB-DL.2160p.ExKinoRay.mkv2.80 GB

Похожие раздачи по запросу - Сёстры
Сегодня magnet Сёстры [03х01-12 из 13] (2024) WEBRip-AVC от Generalfilm | КПК 1.32 GB ↑ 0 ↓ 0
2024-06-15 magnet Сёстры [03x01-12 из 13] (2024) WEBRip от Files-x 3.67 GB ↑ 0 ↓ 0
2024-06-13 magnet Сёстры [03х01-12 из 13] (2024) WEBRip-AVC от Files-x 3.74 GB ↑ 0 ↓ 0
2024-06-12 magnet Сёстры [03x01-12 из 13] (2024) WEBRip 1080p от ExKinoRay 9.27 GB ↑ 0 ↓ 0
2024-06-05 magnet Сёстры [03х01-11 из 13] (2024) WEBRip-AVC от Generalfilm | КПК 1.21 GB ↑ 0 ↓ 0
2024-06-05 magnet Сёстры [03x01-11 из 13] (2024) WEBRip от Files-x 3.36 GB ↑ 0 ↓ 0
2024-06-04 magnet Сёстры [03x01-11 из 13] (2024) WEBRip 1080p от ExKinoRay 8.54 GB ↑ 0 ↓ 0

Комментарии


Зарегистрируйтесь чтобы добавить комментарий
Торрент клиент
byTorrent - программа для загрузки торрент-файлов.

Скачать byTorrent.exe (1,5 МБ)

Скачать byTorrent.zip (0,6 МБ)

Поддержи torrent.by
российских рублей
(300 российских рублей это 4$)

Обратная связь rss

End game ©