↑↓torrent.by
Поиск
Логин:  Регистрация
Пароль:

Истребитель демонов: Тренировка столпов / Kimetsu no Yaiba: Hashira Geiko-hen [04x01-02 из 08] (2024) WEB-DL 1080p | D | Flarrow Films

download Скачать торрент-файл   magnet Магнитная ссылка Размер: 4.24 GB Добавлен: 2024-05-22 11:00
Пиры будут получены из сети DHT
Последний сидер был замечен 2024-05-22 11:00
Информация о фильме Название: Истребитель Демонов: Тренировка столпов Оригинальное название: Kimetsu no Yaiba: Hashira Geiko-hen Год выхода: 2024 Жанр: аниме, мультфильм, фэнтези, боевик Режиссер: Харуо Сотодзаки В ролях: Тосио Фурукава, Нацуки Ханаэ, Кана Ханадзава, Акира Исида, Кэнго Каванъиси, Акари Кито, Кацуюки Конъиси, Ёсицугу Мацуока, Мамору Мияно, Рётаро Окиаю О фильме: С тех пор как Нэзуко стала невосприимчива к солнечному свету, нападения демонов прекратились. Но, разумеется, охотники знают, что Кибутсуджи Мудзан обязательно вновь попытается схватить её, а значит, вскоре им предстоит новое разрушительное противостояние. Чтобы повысить шансы на победу в грядущей войне, корпус решает провести так называемую тренировку столпов. Эта изнурительная программа должна не только укрепить физические способности и здоровье рядовых охотников на демонов, но и значительно поднять индивидуальную силу каждого из столпов. Разумеется, для Танджиро с ребятами этот процесс будет явно не из лёгких, но ради победы над демонами они должны стиснуть зубы и вытерпеть все предстоящие испытания. Страна: Япония Продолжительность: 00:48:54 (1 серия) Перевод: Дублированный (неофициальный) | Flarrow Films Роли озвучивали: Ислам Ганджаев, Егор Васильев, Глеб Гаврилов, Иван Породнов, Нана Саркисян, Кристина Шерман, Евгений Толоконников, Марина Волкова, Федор Редькин, Анастасия Филимонова, Ахилл Намазов, Анастасия Марченко, Евгений Рубцов и Михаил Филиппов. Файл Формат:MKV Кодек: MPEG-4 AVC Качество: WEB-DL 1080p Видео: 1920х1080, ~ 8 247 kb/s, 23.976, 8 bits Аудио: AC-3, 192 kb/s, 2 channels, 48.0 kHz Субтитры: Русские (отключаемые UTF-8) ПОДПИШИСЬ НА НАС В ТЕЛЕГРАМ
[+] MediaInfo General Unique ID : 121741074704512452089024614915679313082 (0x5B967A664DBE83444ABFC3ED6D81DCBA) Complete name : C:Flarrow FilmsKimetsu.no.Yaiba.Hashira.Geiko.Hen.S04.1080p.D.Flarrow.FilmsKimetsu no Yaiba - Hashira Geiko Hen - 01.mkv Format : Matroska Format version : Version 4 File size : 2.86 GiB Duration : 51 min 47 s Overall bit rate : 7 914 kb/s Encoded date : UTC 2024-05-14 17:42:08 Writing application : mkvmerge v45.0.0 ('Heaven in Pennies') 64-bit Writing library : libebml v1.3.10 + libmatroska v1.5.2 Attachments : AdLibBT.ttf / AdLibRg.ttf / arialbd_1.ttf / arialbi_1.ttf / ariali_1.ttf / ARIALNB.TTF / arial_1.ttf / ariblk_1.ttf / balonxb.ttf / BelweBdBTBold.ttf / BRITANIC.TTF / CHILLER.TTF / comicbd_0.ttf / comici_0.ttf / comicz_0.ttf / comic_0.ttf / consolab_0.ttf / COOPBL.ttf / courbd_1.ttf / cour_1.ttf / DejaVuSans-Bold.ttf / DejaVuSansCondensed-Bold.ttf / domcasn.ttf / ebrimabd_0.ttf / Eraser.ttf / FirstGrader.ttf / Freeh471.ttf / FRHND471.TTF / Garamond Bold font.ttf / georgiab_0.ttf / georgiai_0.ttf / georgiaz_0.ttf / georgia_0.ttf / impact_0.ttf / Impress.ttf / JAPAB_.TTF / Rubik-Bold.ttf / Rubik-Light.ttf / Rubik-Regular.ttf / segoeprb_0.ttf / SQR721KN.TTF / SqueakyChalkSound.ttf / STAC222N.TTF / Stacc222.ttf / staccato 555 bt.ttf / Swis721_BT_Bold.ttf / tahomabd_0.ttf / tahoma_1.ttf / timesbd_1.ttf / timesbi_1.ttf / timesi_1.ttf / times_3.ttf / Tonic Regular.ttf / trebucbd_0.ttf / trebucbi_0.ttf / trebucit_0.ttf / trebuc_0.ttf / VAGRoundedBT.ttf / verdanab_0.ttf / verdanaz_0.ttf / verdana_0.ttf / AdobeArabic-Bold.otf / AdobeArabic-BoldItalic.otf / AdobeArabic-Italic.otf / AdobeArabic-Regular.otf Video ID : 1 Format : AVC Format/Info : Advanced Video Codec Format profile : High@L4 Format settings : CABAC / 4 Ref Frames Format settings, CABAC : Yes Format settings, Reference : 4 frames Codec ID : V_MPEG4/ISO/AVC Duration : 48 min 54 s Bit rate : 8 247 kb/s Width : 1 920 pixels Height : 1 080 pixels Display aspect ratio : 16:9 Frame rate mode : Constant Frame rate : 23.976 (24000/1001) FPS Color space : YUV Chroma subsampling : 4:2:0 Bit depth : 8 bits Scan type : Progressive Bits/(Pixel*Frame) : 0.166 Stream size : 2.78 GiB (97%) Writing library : x264 core 161 Encoding settings : cabac=1 / ref=4 / deblock=1:1:1 / analyse=0x3:0x113 / me=hex / subme=4 / psy=1 / psy_rd=0.40:0.00 / mixed_ref=0 / me_range=16 / chroma_me=1 / trellis=1 / 8x8dct=1 / cqm=0 / deadzone=21,11 / fast_pskip=1 / chroma_qp_offset=0 / threads=12 / lookahead_threads=3 / sliced_threads=0 / nr=0 / decimate=1 / interlaced=0 / bluray_compat=0 / constrained_intra=0 / bframes=2 / b_pyramid=0 / b_adapt=1 / b_bias=0 / direct=1 / weightb=1 / open_gop=0 / weightp=1 / keyint=192 / keyint_min=19 / scenecut=40 / intra_refresh=0 / rc_lookahead=20 / rc=abr / mbtree=1 / bitrate=8247 / ratetol=1.0 / qcomp=0.60 / qpmin=0 / qpmax=69 / qpstep=4 / vbv_maxrate=10994 / vbv_bufsize=16495 / nal_hrd=none / filler=0 / ip_ratio=1.40 / aq=1:0.60 Default : Yes Forced : No Color range : Limited Color primaries : BT.709 Transfer characteristics : BT.709 Matrix coefficients : BT.709 Audio ID : 2 Format : AC-3 Format/Info : Audio Coding 3 Commercial name : Dolby Digital Codec ID : A_AC3 Duration : 51 min 47 s Bit rate mode : Constant Bit rate : 192 kb/s Channel(s) : 2 channels Channel layout : L R Sampling rate : 48.0 kHz Frame rate : 31.250 FPS (1536 SPF) Compression mode : Lossy Stream size : 71.1 MiB (2%) Service kind : Complete Main Default : Yes Forced : No Text ID : 3 Format : ASS Codec ID : S_TEXT/ASS Codec ID/Info : Advanced Sub Station Alpha Duration : 48 min 31 s Bit rate : 182 b/s Frame rate : 0.217 FPS Count of elements : 632 Compression mode : Lossless Stream size : 64.9 KiB (0%) Title : Russian Language : Russian Default : No Forced : No
[+] Скриншоты
Релиз от: Flarrow Films Примечание: Присутствует реклама.

Всего файлов в раздаче: 2 
Kimetsu no Yaiba - Hashira Geiko Hen - 01.mkv2.86 GB
Kimetsu no Yaiba - Hashira Geiko Hen - 02.mkv1.37 GB

Похожие раздачи по запросу - Истребитель
2024-06-12 magnet Истребитель демонов: Тренировка столпов / Клинок, рассекающий демонов: Тренировка столпов / Kimetsu no Yaiba: Hashira Geiko-hen [04x01-05 из 08] (2024) WEBRip 1080p by MoscowGolem | D | BandFilms, StudioBand, Flarrow Films 8.98 GB ↑ 0 ↓ 0
2024-06-12 magnet Истребитель демонов: Тренировка столпов / Клинок, рассекающий демонов: Тренировка столпов / Kimetsu no Yaiba: Hashira Geiko-hen [04x01-05 из 08] (2024) WEBRip 1080p by VLDeshka | D | StudioBand, Дубляжная 5.00 GB ↑ 0 ↓ 0
2024-06-06 magnet Истребитель демонов: Тренировка столпов / Клинок, рассекающий демонов: Тренировка столпов / Kimetsu no Yaiba: Hashira Geiko-hen [04x01-04 из 08] (2024) WEBRip 1080p by VLDeshka | D | StudioBand, Дубляжная 4.17 GB ↑ 0 ↓ 0
2024-05-30 magnet Истребитель демонов: Тренировка столпов / Клинок, рассекающий демонов: Тренировка столпов / Kimetsu no Yaiba: Hashira Geiko-hen [04x01-03 из 08] (2024) WEBRip 1080p by MoscowGolem | D | BandFilms, StudioBand, Flarrow Films 6.01 GB ↑ 0 ↓ 0
2024-05-30 magnet Истребитель демонов: Тренировка столпов / Клинок, рассекающий демонов: Тренировка столпов / Kimetsu no Yaiba: Hashira Geiko-hen [04x01-03 из 08] (2024) WEBRip 1080p by VLDeshka | D | StudioBand, Дубляжная 3.35 GB ↑ 0 ↓ 0
2024-05-24 magnet Истребитель демонов: Тренировка столпов / Клинок, рассекающий демонов: Тренировка столпов / Kimetsu no Yaiba: Hashira Geiko-hen [04x01-02 из 08] (2024) WEBRip 1080p by VLDeshka | D | StudioBand, Дубляжная 2.52 GB ↑ 0 ↓ 0
2024-05-15 magnet Истребитель демонов: Тренировка столпов / Клинок, рассекающий демонов: Тренировка столпов / Kimetsu no Yaiba: Hashira Geiko-hen [04x01 из 08] (2024) WEBRip 1080p by VLDeshka | D | StudioBand 1.60 GB ↑ 0 ↓ 0

Комментарии


Зарегистрируйтесь чтобы добавить комментарий
Торрент клиент
byTorrent - программа для загрузки торрент-файлов.

Скачать byTorrent.exe (1,5 МБ)

Скачать byTorrent.zip (0,6 МБ)

Поддержи torrent.by
российских рублей
(300 российских рублей это 4$)

Обратная связь rss

End game ©