↑↓torrent.by
Поиск
Логин:  Регистрация
Пароль:

Прайд из Людей Икс / Pryde of the X-Men (1989) VHSRip-AVC | L

download Скачать торрент-файл   magnet Магнитная ссылка Размер: 588.41 MB Добавлен: 2024-05-22 11:00
Пиры будут получены из сети DHT
Последний сидер был замечен 2024-05-23 09:40
Информация о фильме Название: Прайд из Людей Икс Оригинальное название: Pryde of the X-Men Год выхода: 1989 Жанр: мультфильм, фантастика, боевик, приключения Режиссер: Рэй Ли О фильме: Профессор Ксавьер присылает Китти Прайд приглашение на прохождение обучения в его школе. Приехав в особняк Икс Китти знакомится с Росомахой и другими Людьми Икс. Тем временем из тюрьмы сбегает «заклятый друг» Ксавьера - мутант Магнето, замысливший страшную месть людям... Страна: США Продолжительность: 00:22:00 Перевод: Любительский (многоголосый закадровый) Файл Формат: MKV Качество: VHSRip-AVC Видео: AVC/H.264, 720х540, 23.976 fps, ~3042 kbps Аудио 1: AC3, 2 ch, 192 kbps - Русский (MVO DisneyJazz) Аудио 2: AC3, 2 ch, 192 kbps - Русский (MVO Fronda) Аудио 3: AC3, 2 ch, 256 kbps - Английский Субтитры: русские
[+] MediaInfoGeneral Unique ID : 131254636759204485124994258478907249471 (0x62BEB93917D7E8C2C3BC54B897BFD33F) Complete name : D:Pryde of the X-Men VHSRip.mkv Format : Matroska Format version : Version 4 / Version 2 File size : 588 MiB Duration : 22 min 21 s Overall bit rate : 3 679 kb/s Encoded date : UTC 2024-05-21 11:25:12 Writing application : mkvmerge v46.0.0 ('No Deeper Escape') 32-bit Writing library : libebml v1.3.10 + libmatroska v1.5.2 Video ID : 1 Format : AVC Format/Info : Advanced Video Codec Format profile : High@L4.1 Format settings, CABAC : Yes Format settings, ReFrames : 6 frames Codec ID : V_MPEG4/ISO/AVC Duration : 22 min 19 s Bit rate : 3 042 kb/s Width : 720 pixels Height : 540 pixels Display aspect ratio : 4:3 Frame rate mode : Constant Frame rate : 23.976 (24000/1001) FPS Color space : YUV Chroma subsampling : 4:2:0 Bit depth : 8 bits Scan type : Progressive Bits/(Pixel*Frame) : 0.326 Stream size : 486 MiB (83%) Default : Yes Forced : No Audio #1 ID : 2 Format : AC-3 Format/Info : Audio Coding 3 Format settings, Endianness : Big Codec ID : A_AC3 Duration : 22 min 21 s Bit rate mode : Constant Bit rate : 192 kb/s Channel(s) : 2 channels Channel positions : Front: L R Sampling rate : 48.0 kHz Frame rate : 31.250 FPS (1536 spf) Bit depth : 16 bits Compression mode : Lossy Stream size : 30.7 MiB (5%) Title : MVO DisneyJazz Language : Russian Service kind : Complete Main Default : Yes Forced : No Audio #2 ID : 3 Format : AC-3 Format/Info : Audio Coding 3 Format settings, Endianness : Big Codec ID : A_AC3 Duration : 22 min 21 s Bit rate mode : Constant Bit rate : 192 kb/s Channel(s) : 2 channels Channel positions : Front: L R Sampling rate : 48.0 kHz Frame rate : 31.250 FPS (1536 spf) Bit depth : 16 bits Compression mode : Lossy Stream size : 30.7 MiB (5%) Title : MVO Fronda Language : Russian Service kind : Complete Main Default : No Forced : No Audio #3 ID : 4 Format : AC-3 Format/Info : Audio Coding 3 Format settings, Endianness : Big Codec ID : A_AC3 Duration : 22 min 19 s Bit rate mode : Constant Bit rate : 256 kb/s Channel(s) : 2 channels Channel positions : Front: L R Sampling rate : 48.0 kHz Frame rate : 31.250 FPS (1536 spf) Bit depth : 16 bits Compression mode : Lossy Stream size : 40.9 MiB (7%) Language : English Service kind : Complete Main Default : No Forced : No Text ID : 5 Format : UTF-8 Codec ID : S_TEXT/UTF8 Codec ID/Info : UTF-8 Plain Text Duration : 20 min 38 s Bit rate : 142 b/s Count of elements : 318 Stream size : 21.6 KiB (0%) Language : Russian Default : No Forced : No Menu 00:00:00.000 : en:Chapter 01 00:09:19.166 : en:Chapter 02 00:19:19.766 : en:Chapter 03
[+] Скриншоты

Всего файлов в раздаче: 1 
Pryde of the X-Men VHSRip.mkv588.41 MB

Кто качает (только для создателя раздачи и модераторов): Локальные пиры отсутствуют

Комментарии


Зарегистрируйтесь чтобы добавить комментарий
Торрент клиент
byTorrent - программа для загрузки торрент-файлов.

Скачать byTorrent.exe (1,5 МБ)

Скачать byTorrent.zip (0,6 МБ)

Поддержи torrent.by
российских рублей
(300 российских рублей это 4$)

Обратная связь rss

End game ©