↑↓torrent.by
Поиск
Логин:  Регистрация
Пароль:

Выдуманная жизнь Эбботов / Inventing the Abbotts (1997) WEB-DLRip-AVC от DoMiNo | P

download Скачать торрент-файл   magnet Магнитная ссылка Размер: 2.18 GB Добавлен: 2024-05-22 11:00
Пиры будут получены из сети DHT
Последний сидер был замечен 2024-05-23 19:18
Информация о фильме Название: Выдуманная жизнь Эбботов Оригинальное название: Inventing the Abbotts Год выпуска: 1997 Жанр: Драма, мелодрама Режиссер: Пэт О’Коннор В ролях: Хоакин Феникс, Лив Тайлер, Дженнифер Коннелли, Уилл Пэттон, Кэти Бэйкер, Билли Крадап, Шон Хэтоси, Джоанна Гоинг, Барбара Уильямс, Майкл Саттон, Джули Бенц О фильме: 1957 год. Маленький городок Иллинойс на Среднем Западе. Братья Даг и Джейси Холт, выросшие в простой рабочей семье, совсем непохожи друг на друга. Пятнадцатилетний Даг – тихий и застенчивый. Джейси – 17, он умный, целеустремленный, мечтает учиться в университете. Оба влюблены в красивых и богатых сестер Эббот – Памеллу и Элеонор. Пэм и Даг целиком отдаются нахлынувшему чувству, не задумываясь о разнице в социальном статусе своих семей. Джейси же, наоборот, ее отлично понимает. А еще он подозревает, что глава семейства Эббот, мистер Ллойд, украл патент на изобретение, сделанное его покойным отцом, и на этом разбогател. Страна: США Студия: 20th Century Fox Film Corporation, Imagine Entertainment Продолжительность: 01:47:08 Перевод: Профессиональный (многоголосый, закадровый) Субтитры: Русские, английские Файл Формат: Matroska Качество: WEB-DLRip-AVC Видео: 1024x576 at 23.976 fps, x264, ~2466 kbps, 0.174 bpp Аудио: AC3, 6 ch, ~448 kbps - | Русский | -MVO, R5 Формат субтитров: softsub (SRT) ***Релиз от: -=DoMiNo=-
[+] M/IGeneral Format : Matroska Format version : Version 4 File size : 2.18 GiB Duration : 1 h 47 min Overall bit rate : 2 915 kb/s Movie name : Выдуманная жизнь Эбботов.(1997).WEB-DLRip-AVC. Encoded date : UTC 2019-12-09 08:58:08 Writing application : mkvmerge v41.0.0 ('Smarra') 64-bit Writing library : libebml v1.3.9 + libmatroska v1.5.2 Attachments : poster.png / poster 2.jpg Video ID : 1 Format : AVC Format/Info : Advanced Video Codec Format profile : High@L4.1 Format settings : CABAC / 10 Ref Frames Format settings, CABAC : Yes Format settings, Reference : 10 frames Codec ID : V_MPEG4/ISO/AVC Duration : 1 h 47 min Bit rate : 2 466 kb/s Width : 1 024 pixels Height : 576 pixels Display aspect ratio : 16:9 Frame rate mode : Constant Frame rate : 23.976 (24000/1001) FPS Color space : YUV Chroma subsampling : 4:2:0 Bit depth : 8 bits Scan type : Progressive Bits/(Pixel*Frame) : 0.174 Stream size : 1.84 GiB (85%) Title : RIP_BY_-=DoMiNo=- Writing library : x264 core 152 r2851kMod ba24899 Encoding settings : cabac=1 / ref=10 / deblock=1:-2:-2 / analyse=0x3:0x133 / me=umh / subme=11 / psy=1 / fade_compensate=0.00 / psy_rd=1.00:0.15 / mixed_ref=1 / me_range=32 / chroma_me=1 / trellis=2 / 8x8dct=1 / cqm=0 / deadzone=21,11 / fast_pskip=0 / chroma_qp_offset=-3 / threads=6 / lookahead_threads=1 / sliced_threads=0 / nr=0 / decimate=0 / interlaced=0 / bluray_compat=0 / constrained_intra=0 / bframes=9 / b_pyramid=2 / b_adapt=2 / b_bias=0 / direct=3 / weightb=1 / open_gop=0 / weightp=2 / keyint=240 / keyint_min=24 / scenecut=40 / intra_refresh=0 / rc_lookahead=40 / rc=2pass / mbtree=0 / bitrate=2466 / ratetol=1.0 / qcomp=0.70 / qpmin=0 / qpmax=69 / qpstep=4 / cplxblur=20.0 / qblur=0.5 / vbv_maxrate=50000 / vbv_bufsize=62500 / nal_hrd=none / filler=0 / ip_ratio=1.40 / pb_ratio=1.30 / aq=3:0.80 Language : English Default : Yes Forced : No Color range : Limited Color primaries : BT.709 Transfer characteristics : BT.709 Matrix coefficients : BT.709 Audio ID : 2 Format : AC-3 Format/Info : Audio Coding 3 Commercial name : Dolby Digital Codec ID : A_AC3 Duration : 1 h 47 min Bit rate mode : Constant Bit rate : 448 kb/s Channel(s) : 6 channels Channel layout : L R C LFE Ls Rs Sampling rate : 48.0 kHz Frame rate : 31.250 FPS (1536 SPF) Compression mode : Lossy Stream size : 343 MiB (15%) Title : MVO R5 Language : Russian Service kind : Complete Main Default : Yes Forced : No Text #1 ID : 3 Format : UTF-8 Codec ID : S_TEXT/UTF8 Codec ID/Info : UTF-8 Plain Text Duration : 1 h 46 min Bit rate : 75 b/s Count of elements : 1048 Stream size : 58.5 KiB (0%) Language : Russian Default : No Forced : No Text #2 ID : 4 Format : UTF-8 Codec ID : S_TEXT/UTF8 Codec ID/Info : UTF-8 Plain Text Duration : 1 h 40 min Bit rate : 48 b/s Count of elements : 970 Stream size : 35.8 KiB (0%) Language : English Default : No Forced : No Menu 00:00:00.000 : :Глава 01 00:07:30.000 : :Глава 02 00:15:00.000 : :Глава 03 00:22:30.000 : :Глава 04 00:30:00.000 : :Глава 05 00:37:30.000 : :Глава 06 00:45:00.000 : :Глава 07 00:52:30.000 : :Глава 08 01:00:00.000 : :Глава 09 01:07:30.000 : :Глава 10 01:15:00.000 : :Глава 11 01:22:30.000 : :Глава 12 01:30:00.000 : :Глава 13 01:37:30.000 : :Глава 14 01:45:00.000 : :Глава 15
[+] Скриншоты

Всего файлов в раздаче: 1 
Выдуманная жизнь Эбботов.(1997).WEB-DLRip-AVC.[-=DoMiNo=-].mkv2.18 GB

Кто качает (только для создателя раздачи и модераторов): Локальные пиры отсутствуют

Комментарии


Зарегистрируйтесь чтобы добавить комментарий
Торрент клиент
byTorrent - программа для загрузки торрент-файлов.

Скачать byTorrent.exe (1,5 МБ)

Скачать byTorrent.zip (0,6 МБ)

Поддержи torrent.by
российских рублей
(300 российских рублей это 4$)

Обратная связь rss

End game ©