↑↓torrent.by
Поиск
Логин:  Регистрация
Пароль:

Сочувствующий / The Sympathizer [01x01-06 из 07] (2024) WEB-DL 1080p от Jaskier | P

download Скачать торрент-файл   magnet Магнитная ссылка Размер: 25.32 GB Добавлен: 2024-05-22 17:00
Пиры будут получены из сети DHT
Последний сидер был замечен 2024-05-23 20:40
Информация о фильме Название: Сочувствующий Оригинальное название: The Sympathizer Год выхода: 2024 Жанр: триллер, драма, история Режиссер: Пак Чхан-ук, Марк Манден, Фернанду Мейреллиш В ролях: Хоа Сюаньдэ, Роберт Дауни мл., Тоан Ле, Фред Нгуен Кхан, Том Данг, Скотт Ли, Тьен Фам, Нгуен Као Ки Дуен, Кью Тинь, Виви Нгуен О фильме: Конец Вьетнамской войны. Капитан, служивший в армии Южного Вьетнама, бежит в США и селится в общине беженцев, где продолжает шпионить и докладывать Вьетконгу. Страна: США Студия: A24, Rhombus Media, Team Downey Продолжительность: ~00:57:00 Перевод: Профессиональный (многоголосый закадровый) Jaskier Файл Кодек: MKV Качество: WEB-DL 1080p Видео: AVC, 1920x960 (2.000), 23.976 fps, ~9168 kbps Звук: Аудио 1: Русский, AC-3, 48 kHz, 6 ch, 384 kbps | Jaskier Аудио 2: Английский, E-AC-3 JOC, 48 kHz, 6 ch, 768 kbps Субтитры: Английские (Full, SDH) Семпл
[+] MediaInfo General Unique ID : 241706681734400060528147170228492549336 (0xB5D7037C03F4BF6AA432FD29728FBCD8) Complete name : E:TorrentThe.Sympathizer.S01.1080p.AMZN.WEB-DL.DDP5.1.H.264-JaskierThe.Sympathizer.S01E01.Death.Wish.1080p.AMZN.WEB-DL.DDP5.1.H.264-Jaskier.mkv Format : Matroska Format version : Version 4 File size : 4.21 GiB Duration : 57 min 15 s Overall bit rate : 10.5 Mb/s Frame rate : 23.976 FPS Encoded date : 2024-04-17 09:43:02 UTC Writing application : mkvmerge v6.6.0 ('The Edge Of The In Between') built on Dec 1 2013 17:55:00 Writing library : libebml v1.3.0 + libmatroska v1.4.1 Video ID : 1 Format : AVC Format/Info : Advanced Video Codec Format profile : High@L4 Format settings : CABAC / 4 Ref Frames Format settings, CABAC : Yes Format settings, Reference frames : 4 frames Codec ID : V_MPEG4/ISO/AVC Duration : 57 min 15 s Bit rate mode : Constant Bit rate : 9 168 kb/s Nominal bit rate : 10 000 kb/s Width : 1 920 pixels Height : 960 pixels Display aspect ratio : 2.000 Frame rate mode : Constant Frame rate : 23.976 (24000/1001) FPS Color space : YUV Chroma subsampling : 4:2:0 Bit depth : 8 bits Scan type : Progressive Bits/(Pixel*Frame) : 0.207 Stream size : 3.67 GiB (87%) Default : Yes Forced : No Color range : Limited Color primaries : BT.709 Transfer characteristics : BT.709 Matrix coefficients : BT.709 Audio #1 ID : 2 Format : AC-3 Format/Info : Audio Coding 3 Commercial name : Dolby Digital Codec ID : A_AC3 Duration : 57 min 15 s Bit rate mode : Constant Bit rate : 384 kb/s Channel(s) : 6 channels Channel layout : L R C LFE Ls Rs Sampling rate : 48.0 kHz Frame rate : 31.250 FPS (1536 SPF) Compression mode : Lossy Stream size : 157 MiB (4%) Title : Jaskier Language : Russian Service kind : Complete Main Default : Yes Forced : No Audio #2 ID : 3 Format : E-AC-3 JOC Format/Info : Enhanced AC-3 with Joint Object Coding Commercial name : Dolby Digital Plus with Dolby Atmos Codec ID : A_EAC3 Duration : 57 min 15 s Bit rate mode : Constant Bit rate : 768 kb/s Channel(s) : 6 channels Channel layout : L R C LFE Ls Rs Sampling rate : 48.0 kHz Frame rate : 31.250 FPS (1536 SPF) Compression mode : Lossy Stream size : 315 MiB (7%) Title : Original Language : English Service kind : Complete Main Default : No Forced : No Complexity index : 16 Number of dynamic objects : 15 Bed channel count : 1 channel Bed channel configuration : LFE Text #1 ID : 4 Format : UTF-8 Codec ID : S_TEXT/UTF8 Codec ID/Info : UTF-8 Plain Text Language : English Default : No Forced : No Text #2 ID : 5 Format : UTF-8 Codec ID : S_TEXT/UTF8 Codec ID/Info : UTF-8 Plain Text Title : SDH Language : English Default : No Forced : No
[+] Скриншоты
Релиз от: Jaskier

Всего файлов в раздаче: 6 
The.Sympathizer.S01E01.Death.Wish.1080p.AMZN.WEB-DL.DDP5.1.H.264-Jaskier.mkv4.21 GB
The.Sympathizer.S01E02.Good.Little.Asian.1080p.AMZN.WEB-DL.DDP5.1.H.264-Jaskier.mkv4.36 GB
The.Sympathizer.S01E03.Love.It.or.Leave.It.1080p.AMZN.WEB-DL.DDP5.1.H.264-Jaskier.mkv4.38 GB
The.Sympathizer.S01E04.Give.Us.Some.Good.Lines.1080p.AMZN.WEB-DL.DDP5.1.H.264-Jaskier.mkv4.30 GB
The.Sympathizer.S01E05.All.for.One.1080p.AMZN.WEB-DL.DDP5.1.H.264-Jaskier.mkv4.22 GB
The.Sympathizer.S01E06.The.Oriental.Mode.of.Destruction.1080p.AMZN.WEB-DL.DDP5.1.H.264-Jaskier.mkv3.83 GB

Похожие раздачи по запросу - Сочувствующий
2024-05-30 magnet Сочувствующий / The Sympathizer [S01] (2024) WEB-DL 1080p от Jaskier | P 29.59 GB ↑ 0 ↓ 0
2024-05-28 magnet Сочувствующий / The Sympathizer [S01] (2024) WEB-DL 1080p | Syncmer 26.58 GB ↑ 0 ↓ 0

Кто качает (только для создателя раздачи и модераторов): Локальные пиры отсутствуют

Комментарии


Зарегистрируйтесь чтобы добавить комментарий
Торрент клиент
byTorrent - программа для загрузки торрент-файлов.

Скачать byTorrent.exe (1,5 МБ)

Скачать byTorrent.zip (0,6 МБ)

Поддержи torrent.by
российских рублей
(300 российских рублей это 4$)

Обратная связь rss

End game ©