↑↓torrent.by
Поиск
Логин:  Регистрация
Пароль:

Бюро магических услуг / The Portable Door (2023) BDRip-AVC от DoMiNo & селезень | D, P

download Скачать торрент-файл   magnet Магнитная ссылка Размер: 1.96 GB Добавлен: 2024-05-22 17:00
Пиры будут получены из сети DHT
Последний сидер был замечен 2024-05-23 18:42
Информация о фильме Название: Бюро магических услуг Оригинальное название: The Portable Door Год выхода: 2023 Жанр: Фэнтези, комедия, детектив, приключения Режиссер: Джеффри Уокер В ролях: Кристоф Вальц, Сэм Нил, Рэйчел Хаус, Миранда Отто, Патрик Гибсон, Софи Уайлд, Джессика Де Гау, Дэймон Херриман, Крис Пэнг, Диана Лин, Кристофер Соммерс, Джейсон Уайлдер О фильме: Самые обычные клерки работают в весьма необычной фирме. Здесь распутывают самые странные происшествия и занимаются поисками магических артефактов. Непримечательная парочка стажеров — исполнителей среднего звена, даже не подозревает, во что ввязалась, и думает лишь о том, как бы разобраться с рутиной до ужина, желательно не изменив ход истории и не повергнув Вселенную в хаос временных парадоксов. Иначе повышения им точно не видать. Страна: Австралия Студия: Jim Henson Company, The, MEP Capital Продолжительность: 01:55:56 Перевод 1: Профессиональный (полное дублирование) | Велес Перевод 2: Профессиональный многоголосый | Jaskier Субтитры: Русские (Full), Английские Файл Формат: Matroska Качество: BDRip-AVC | Исх.The Portable Door 2023 BluRay 1080p REMUX AVC DTS-HD MA 5 1-LEGi0N Видео: 1024x428 at 23.976 fps, x264@L4.1, ~1653 kbps Аудио 1: AC3, 6 ch, ~384 kbps - | Русский | | Велес Аудио 2: AC3, 6 ch, ~384 kbps - | Русский | | Jaskier Формат субтитров: softsub (SRT) ***Рип от: -=DoMiNo=-
[+] M/Ix264 : frame I:1452 Avg QP:13.34 size: 58226 x264 : frame P:34802 Avg QP:15.18 size: 19184 x264 : frame B:130529 Avg QP:18.27 size: 5251 General Unique ID : 78674914030286983902872856673341263582 (0x3B303CBE66E19422E2589078430DCEDE) Complete name : R:The.Portable.Door.2023.BDRip.x264.seleZen.mkv Format : Matroska Format version : Version 4 File size : 1.96 GiB Duration : 1 h 55 min Overall bit rate : 2 424 kb/s Frame rate : 23.976 FPS Movie name : The.Portable.Door.2023.BDRip.x264.seleZen Encoded date : 2024-05-22 09:53:46 UTC Writing application : mkvmerge v84.0 ('Sleeper') 64-bit Writing library : libebml v1.4.5 + libmatroska v1.7.1 Cover : Yes Attachments : cover.jpg / small_cover.jpg Video ID : 1 Format : AVC Format/Info : Advanced Video Codec Format profile : High@L4.1 Format settings : CABAC / 14 Ref Frames Format settings, CABAC : Yes Format settings, Reference : 14 frames Codec ID : V_MPEG4/ISO/AVC Duration : 1 h 55 min Bit rate : 1 653 kb/s Width : 1 024 pixels Height : 428 pixels Display aspect ratio : 2.39:1 Frame rate mode : Constant Frame rate : 23.976 (24000/1001) FPS Color space : YUV Chroma subsampling : 4:2:0 Bit depth : 8 bits Scan type : Progressive Bits/(Pixel*Frame) : 0.157 Stream size : 1.34 GiB (68%) Title : -=DoMiNo=- Writing library : x264 core 164 r3191 -DoMiNo Encoding settings : cabac=1 / ref=14 / deblock=1:-2:-2 / analyse=0x3:0x133 / me=umh / subme=10 / psy=1 / psy_rd=1.00:0.05 / mixed_ref=1 / me_range=32 / chroma_me=1 / trellis=2 / 8x8dct=1 / cqm=0 / deadzone=21,11 / fast_pskip=0 / chroma_qp_offset=-3 / threads=13 / lookahead_threads=3 / sliced_threads=0 / nr=0 / decimate=1 / interlaced=0 / bluray_compat=0 / constrained_intra=0 / bframes=12 / b_pyramid=2 / b_adapt=2 / b_bias=0 / direct=3 / weightb=1 / open_gop=0 / weightp=2 / keyint=240 / keyint_min=23 / scenecut=40 / intra_refresh=0 / rc_lookahead=60 / rc=crf / mbtree=0 / crf=17.8 / qcomp=0.60 / qpmin=0 / qpmax=69 / qpstep=4 / vbv_maxrate=50000 / vbv_bufsize=62500 / crf_max=0.0 / nal_hrd=none / filler=0 / ip_ratio=1.40 / pb_ratio=1.30 / aq=3:0.90 Language : English Default : Yes Forced : No Color range : Limited Color primaries : BT.709 Transfer characteristics : BT.709 Matrix coefficients : BT.709 Audio #1 ID : 2 Format : AC-3 Format/Info : Audio Coding 3 Commercial name : Dolby Digital Codec ID : A_AC3 Duration : 1 h 55 min Bit rate mode : Constant Bit rate : 384 kb/s Channel(s) : 6 channels Channel layout : L R C LFE Ls Rs Sampling rate : 48.0 kHz Frame rate : 31.250 FPS (1536 SPF) Compression mode : Lossy Stream size : 318 MiB (16%) Title : Dub Language : Russian Service kind : Complete Main Default : Yes Forced : No Dialog Normalization : -31 dB cmixlev : -3.0 dB surmixlev : -6 dB dialnorm_Average : -31 dB dialnorm_Minimum : -31 dB dialnorm_Maximum : -31 dB Audio #2 ID : 3 Format : AC-3 Format/Info : Audio Coding 3 Commercial name : Dolby Digital Codec ID : A_AC3 Duration : 1 h 55 min Bit rate mode : Constant Bit rate : 384 kb/s Channel(s) : 6 channels Channel layout : L R C LFE Ls Rs Sampling rate : 48.0 kHz Frame rate : 31.250 FPS (1536 SPF) Compression mode : Lossy Stream size : 318 MiB (16%) Title : MVO Language : Russian Service kind : Complete Main Default : No Forced : No Dialog Normalization : -31 dB cmixlev : -3.0 dB surmixlev : -6 dB dialnorm_Average : -31 dB dialnorm_Minimum : -31 dB dialnorm_Maximum : -31 dB Text #1 ID : 4 Format : UTF-8 Codec ID : S_TEXT/UTF8 Codec ID/Info : UTF-8 Plain Text Duration : 1 h 54 min Bit rate : 75 b/s Frame rate : 0.234 FPS Count of elements : 1601 Stream size : 63.4 KiB (0%) Title : Full Language : Russian Default : No Forced : No Text #2 ID : 5 Format : UTF-8 Codec ID : S_TEXT/UTF8 Codec ID/Info : UTF-8 Plain Text Duration : 1 h 53 min Bit rate : 52 b/s Frame rate : 0.226 FPS Count of elements : 1542 Stream size : 43.3 KiB (0%) Title : Full Language : English (GB) Default : No Forced : No Text #3 ID : 6 Format : UTF-8 Codec ID : S_TEXT/UTF8 Codec ID/Info : UTF-8 Plain Text Duration : 1 h 54 min Bit rate : 62 b/s Frame rate : 0.274 FPS Count of elements : 1875 Stream size : 52.0 KiB (0%) Title : SDH Language : English (GB) Default : No Forced : No Menu 00:00:00.000 : Chapter 01 00:14:12.435 : Chapter 02 00:22:59.837 : Chapter 03 00:34:30.402 : Chapter 04 00:42:38.264 : Chapter 05 00:54:15.794 : Chapter 06 01:08:21.014 : Chapter 07 01:18:43.302 : Chapter 08 01:32:44.267 : Chapter 09 01:41:21.742 : Chapter 10 01:45:45.089 : Chapter 11 01:48:48.939 : Chapter 12
Релиз: Присоединяйся к: Кликай на баннеры.

Всего файлов в раздаче: 1 
The.Portable.Door.2023.BDRip.x264.seleZen.mkv1.96 GB

Похожие раздачи по запросу - Бюро
2024-05-25 magnet Бюро магических услуг / The Portable Door (2023) UHD WEB-DL-HEVC 2160p | 4K | HDR10+ | D, P 12.05 GB ↑ 0 ↓ 1
2024-05-23 magnet Бюро магических услуг / The Portable Door (2023) BDRip-AVC от DoMiNo & селезень | D 747.26 MB ↑ 0 ↓ 0
2024-05-22 magnet Бюро магических услуг / The Portable Door (2023) BDRip 1080p от селезень | D, P 9.24 GB ↑ 0 ↓ 2
2024-05-22 magnet Бюро магических услуг / The Portable Door (2023) BDRip от MegaPeer | D 1.46 GB ↑ 0 ↓ 0
2024-05-21 magnet Бюро магических услуг / Магічні двері / The Portable Door (2023) BDRemux 1080p | D | UKR 25.46 GB ↑ 0 ↓ 0
2024-03-29 magnet Бюро магических услуг / The Portable Door (2023) WEB-DLRip от toxics & селезень | D 1.46 GB ↑ 0 ↓ 0
2024-03-29 magnet Бюро магических услуг / The Portable Door (2023) WEB-DLRip 720p от DoMiNo & селезень | D, P 1К2.49 GB ↑ 0 ↓ 0

Кто качает (только для создателя раздачи и модераторов): Локальные пиры отсутствуют

Комментарии


Зарегистрируйтесь чтобы добавить комментарий
Торрент клиент
byTorrent - программа для загрузки торрент-файлов.

Скачать byTorrent.exe (1,5 МБ)

Скачать byTorrent.zip (0,6 МБ)

Поддержи torrent.by
российских рублей
(300 российских рублей это 4$)

Обратная связь rss

End game ©