↑↓torrent.by
Поиск
Логин:  Регистрация
Пароль:

Город тайн: Исчезнувшая / Сила природы: Засуха 2 / Force of Nature: The Dry 2 (2024) BDRip-HEVC 1080p от HEVC-CLUB | D

download Скачать торрент-файл   magnet Магнитная ссылка Размер: 7.75 GB Раздают: 0 Качают: 1 Добавлен: 2024-05-23 05:00
Пиры будут получены из сети DHT
Последний сидер был замечен вчера в 21:52
Год выхода: 2024 Страна: США Студия: Made Up Stories Жанр: Триллер Продолжительность: 01:52:24 Перевод: Дублированный (Paragraph Media) Режиссер: Роберт Коннолли В ролях: Анна Торв, Арчи Томсон, Деборра-Ли Фернесс, Джереми Линдсэй Тейлор, Жаклин Маккензи, Ингрид Торелли, Кен Рэдли, Люси Анселл, Мези Этвуд, Ричард Роксбург, Робин МакЛиви, Сиси Стрингер, Тони Бриггс, Эрик Бана, Эшли Рикардо Описание: Пять девушек отправляются на корпоративный тимбилдинг в горы. В ходе квеста бесследно исчезает одна из них, а другие участники похода явно что-то скрывают. На помощь местному следствию приезжает федеральный агент Аарон Фальк. Однако чем больше он углубляется в дело, тем больше прозрений у него возникает. Ведь каждая из вернувшихся рассказывает свою версию произошедшего, а местной полиции совершенно неясно, что тут делает федерал и зачем ему звонила пропавшая перед своим исчезновением. Качество: BDRip-HEVC 1080p Видео: HEVC/x.265, 1920x804, ~5814 kb/s Аудио 1: AC3, 6 ch, 384 Kbps - Русский, Дублированный (Paragraph Media) Аудио 2: DTS-HD MA, 6 ch, 3675 Kbps - Английский Субтитры: Русские (форсированные, полные), английские
[+] Mediainfo General Unique ID : 183399311408290071031547388667014693623 (0x89F96C2D0800DB8B0DC72F9590F842F7) Complete name : G:Force of Nature The Dry 2 (2024) BDRip-HEVC 1080p 10 bit.mkv Format : Matroska Format version : Version 4 File size : 7.75 GiB Duration : 1 h 52 min Overall bit rate mode : Variable Overall bit rate : 9 877 kb/s Frame rate : 24.000 FPS Movie name : by HANNIBAL Encoded date : 2024-05-20 19:06:06 UTC Writing application : mkvmerge v45.0.0 ('Heaven in Pennies') 64-bit Writing library : libebml v1.3.10 + libmatroska v1.5.2 Cover : Yes Attachments : cover.jpeg Video ID : 1 Format : HEVC Format/Info : High Efficiency Video Coding Format profile : Main 10@L4.1@High Codec ID : V_MPEGH/ISO/HEVC Duration : 1 h 52 min Bit rate : 5 814 kb/s Width : 1 920 pixels Height : 804 pixels Display aspect ratio : 2.39:1 Frame rate mode : Constant Frame rate : 24.000 FPS Color space : YUV Chroma subsampling : 4:2:0 (Type 0) Bit depth : 10 bits Bits/(Pixel*Frame) : 0.157 Stream size : 4.56 GiB (59%) Writing library : x265 3.5+1-f0c1022b6: 10bit Encoding settings : cpuid=1111039 / frame-threads=13 / numa-pools=12 / wpp / no-pmode / no-pme / no-psnr / no-ssim / log-level=3 / input-csp=1 / input-res=1920x804 / interlace=0 / total-frames=0 / level-idc=41 / high-tier=1 / uhd-bd=0 / ref=5 / no-allow-non-conformance / no-repeat-headers / annexb / no-aud / no-eob / no-eos / no-hrd / info / hash=0 / temporal-layers=0 / open-gop / min-keyint=23 / keyint=240 / gop-lookahead=0 / bframes=16 / b-adapt=2 / b-pyramid / bframe-bias=0 / rc-lookahead=60 / lookahead-slices=4 / scenecut=40 / no-hist-scenecut / radl=0 / no-splice / no-intra-refresh / ctu=32 / min-cu-size=8 / rect / amp / max-tu-size=32 / tu-inter-depth=4 / tu-intra-depth=4 / limit-tu=4 / rdoq-level=2 / dynamic-rd=0.00 / no-ssim-rd / signhide / no-tskip / nr-intra=0 / nr-inter=0 / no-constrained-intra / no-strong-intra-smoothing / max-merge=5 / limit-refs=1 / limit-modes / me=3 / subme=7 / merange=57 / temporal-mvp / no-frame-dup / no-hme / weightp / weightb / no-analyze-src-pics / deblock=-3:-3 / no-sao / no-sao-non-deblock / rd=4 / selective-sao=0 / no-early-skip / rskip / no-fast-intra / no-tskip-fast / no-cu-lossless / b-intra / no-splitrd-skip / rdpenalty=0 / psy-rd=2.00 / psy-rdoq=1.00 / no-rd-refine / no-lossless / cbqpoffs=0 / crqpoffs=0 / rc=crf / crf=20.0 / qcomp=0.60 / qpstep=4 / stats-write=0 / stats-read=0 / vbv-maxrate=50000 / vbv-bufsize=50000 / vbv-init=0.9 / min-vbv-fullness=50.0 / max-vbv-fullness=80.0 / crf-max=30.0 / crf-min=0.0 / ipratio=1.40 / pbratio=1.30 / aq-mode=2 / aq-strength=1.00 / no-cutree / zone-count=0 / no-strict-cbr / qg-size=32 / no-rc-grain / qpmax=69 / qpmin=0 / no-const-vbv / sar=1 / overscan=0 / videoformat=5 / range=0 / colorprim=1 / transfer=1 / colormatrix=1 / chromaloc=1 / chromaloc-top=0 / chromaloc-bottom=0 / display-window=0 / cll=0,0 / min-luma=0 / max-luma=1023 / log2-max-poc-lsb=8 / vui-timing-info / vui-hrd-info / slices=1 / no-opt-qp-pps / no-opt-ref-list-length-pps / no-multi-pass-opt-rps / scenecut-bias=0.05 / no-opt-cu-delta-qp / aq-motion / no-hdr10 / no-hdr10-opt / no-dhdr10-opt / no-idr-recovery-sei / analysis-reuse-level=0 / analysis-save-reuse-level=0 / analysis-load-reuse-level=0 / scale-factor=0 / refine-intra=0 / refine-inter=0 / refine-mv=1 / refine-ctu-distortion=0 / no-limit-sao / ctu-info=0 / no-lowpass-dct / refine-analysis-type=0 / copy-pic=1 / max-ausize-factor=1.0 / no-dynamic-refine / no-single-sei / no-hevc-aq / no-svt / no-field / qp-adaptation-range=1.00 / scenecut-aware-qp=0conformance-window-offsets / right=0 / bottom=0 / decoder-max-rate=0 / no-vbv-live-multi-pass / no-mcstf / no-sbrc Language : English Default : Yes Forced : No Color range : Limited Color primaries : BT.709 Transfer characteristics : BT.709 Matrix coefficients : BT.709 Audio #1 ID : 2 Format : AC-3 Format/Info : Audio Coding 3 Commercial name : Dolby Digital Codec ID : A_AC3 Duration : 1 h 52 min Bit rate mode : Constant Bit rate : 384 kb/s Channel(s) : 6 channels Channel layout : L R C LFE Ls Rs Sampling rate : 48.0 kHz Frame rate : 31.250 FPS (1536 SPF) Compression mode : Lossy Stream size : 309 MiB (4%) Title : Dub Language : Russian Service kind : Complete Main Default : Yes Forced : No Audio #2 ID : 3 Format : DTS XLL Format/Info : Digital Theater Systems Commercial name : DTS-HD Master Audio Codec ID : A_DTS Duration : 1 h 52 min Bit rate mode : Variable Bit rate : 3 675 kb/s Channel(s) : 6 channels Channel layout : C L R Ls Rs LFE Sampling rate : 48.0 kHz Frame rate : 93.750 FPS (512 SPF) Bit depth : 24 bits Compression mode : Lossless Stream size : 2.89 GiB (37%) Title : Original Language : English Default : No Forced : No Text #1 ID : 4 Format : UTF-8 Codec ID : S_TEXT/UTF8 Codec ID/Info : UTF-8 Plain Text Duration : 1 h 44 min Bit rate : 2 b/s Frame rate : 0.005 FPS Count of elements : 33 Stream size : 2.11 KiB (0%) Title : Forced Language : Russian Default : Yes Forced : No Text #2 ID : 5 Format : UTF-8 Codec ID : S_TEXT/UTF8 Codec ID/Info : UTF-8 Plain Text Duration : 1 h 45 min Bit rate : 86 b/s Frame rate : 0.210 FPS Count of elements : 1331 Stream size : 67.0 KiB (0%) Title : Full Language : Russian Default : No Forced : No Text #3 ID : 6 Format : UTF-8 Codec ID : S_TEXT/UTF8 Codec ID/Info : UTF-8 Plain Text Duration : 1 h 45 min Bit rate : 66 b/s Frame rate : 0.282 FPS Count of elements : 1795 Stream size : 52.0 KiB (0%) Title : Full Language : English Default : No Forced : No Menu 00:00:00.000 : en:Chapter 01 00:09:59.042 : en:Chapter 02 00:19:48.667 : en:Chapter 03 00:30:24.500 : en:Chapter 04 00:40:17.917 : en:Chapter 05 00:48:20.958 : en:Chapter 06 01:01:01.792 : en:Chapter 07 01:10:39.042 : en:Chapter 08 01:19:17.958 : en:Chapter 09 01:28:09.250 : en:Chapter 10 01:38:40.833 : en:Chapter 11 01:47:48.875 : en:Chapter 12
[+] Скриншоты
Релиз от: HANNIBAL

Всего файлов в раздаче: 1 
Force of Nature The Dry 2 (2024) BDRip-HEVC 1080p 10 bit.mkv7.75 GB

Похожие раздачи по запросу - Город
2024-06-13 magnet Город тайн [01х01-02 из 16] (2024) WEB-DLRip-AVC от Files-x 1.26 GB ↑ 0 ↓ 0
2024-06-13 magnet Город тайн [01x01-02 из 16] (2024) WEB-DL 1080p от ExKinoRay 3.79 GB ↑ 0 ↓ 0
2024-06-13 magnet Город тайн [01x01-02 из 16] (2024) WEB-DL 720p от ExKinoRay 1.99 GB ↑ 0 ↓ 0
2024-06-06 magnet Волшебный город 5: Карнавал начинается / Magic City Detective 5: The Carnival Begins CE (2024) PC 1.02 GB ↑ 0 ↓ 0
2024-06-05 magnet Аллан Куотермейн и потерянный город золота / Allan Quatermain and the Lost City of Gold (1986) BDRip-HEVC 1080p от RIPS CLUB | P, P2, A 10.89 GB ↑ 0 ↓ 0
2024-05-26 magnet Гай Юлий Орловский - Михаил Меч Господа 2, Подземный город Содома (2024) МР3 521.21 MB ↑ 0 ↓ 0
2024-05-25 magnet Город тайн / Засуха / The Dry (2020) BDRip 1080p от Generalfilm | D 8.51 GB ↑ 0 ↓ 0

Кто качает (только для создателя раздачи и модераторов):
ПользовательIP:портОтдалПринялОстатокСидируетТоррент клиентОбновился
1 Аноним 37.22.74.86:32000 176.00 kB 4.52 GB 7.67 GB нет -qB4390- 02:05 2024-06-15

Комментарии


Зарегистрируйтесь чтобы добавить комментарий
Торрент клиент
byTorrent - программа для загрузки торрент-файлов.

Скачать byTorrent.exe (1,5 МБ)

Скачать byTorrent.zip (0,6 МБ)

Поддержи torrent.by
российских рублей
(300 российских рублей это 4$)

Обратная связь rss

End game ©