↑↓torrent.by
Поиск
Логин:  Регистрация
Пароль:

Дядя Леша [S01 + Фильм о фильме] (2024) WEBRip 1080p

download Скачать торрент-файл   magnet Магнитная ссылка Размер: 11.54 GB Добавлен: 2024-05-23 05:00
Пиры будут получены из сети DHT
Последний сидер был замечен 2024-05-29 07:08
Информация о фильме Название: Дядя Леша Год выхода: 2024 Жанр: Комедия, семейный Режиссёр: Дмитрий Невзоров В ролях: Тимофей Трибунцев, Анна Уколова, Сергей Лавыгин, Наталья Рычкова, Елизавета Хомякова, Хетаг Хинчагов, Григорий Дудник, Алексей Симонов, Иван Купреенко, Светлана Суханова, Илья Борисов, Олег Протасов, Никита Лето, Екатерина Таланова, Денис Пьянов, Зоя Зиновьева, Анна Ичетовкина, Марина Кикеева О фильме: Дядя Леша — обычный дворник, который работает в детском доме в небольшом городе. По ночам он грабит дома состоятельных жителей, а награбленную добычу он тратит на нужды этого же детского дома. Его схема дает сбой, когда трое самых хулиганистых воспитанников случайно застают дядю Лешу «за работой». Герою ничего не остается, кроме как взять молодежь в подельники… С этого момента жизнь дяди Леши превращается в аттракцион, и ему предстоит решить гору проблем от своих новых «компаньонов», запутать расследование своих же преступлений, вернуть доверие любимой женщины, расплатиться за серьезные ошибки прошлого, а самое главное — реализовать до конца свой «план Робин Гуда». Жизнь его подельников тоже меняется — ведь благодаря этой авантюре они обретают «отеческую фигуру». Страна: Россия Студия: ЛУКФИЛЬМ / LOOKFILM, Место силы, МТС Медиа Продолжительность: 9 x ~ 00:35:00 Язык: Русский Премьера в Росcии: 01 мая 2024 года Цифровой релиз: 01 мая 2024 года Примечание: Без рекламы Возраст: 16+ Файл Формат: MKV Качество: WEBRip 1080p Видео: MPEG-4 AVC, ~ 6144 Кбит/с, 1920x1080 Звук: AC3, 2 ch, 256 Кбит/с Субтитры: Отсутствуют Семпл
[+] Скриншоты
[+] MIОбщее Уникальный идентификатор : 71004274835297750549794285994419993396 (0x356AED0856911F1BF0EBFC8886ACBB34) Полное имя : C:UsersAdminDesktopDyadya.Lesha.S01.2024.WEB-DL.1080pDyadya.Lesha.S01.E01.2024.WEB-DL.1080p.mkv Формат : Matroska Версия формата : Version 4 Размер файла : 1,56 Гбайт Продолжительность : 35 м. 27 с. Режим общего битрейта : Постоянный Общий поток : 6 307 Кбит/сек Название фильма : Dyadya.Lesha.S01.E01.2024.WEB-DL.1080p Дата кодирования : UTC 2024-05-01 05:56:24 Программа кодирования : mkvmerge v84.0 ('Sleeper') 64-bit Библиотека кодирования : libebml v1.4.5 + libmatroska v1.7.1 Attachments : poster.jpg Видео Идентификатор : 1 Формат : AVC Формат/Информация : Advanced Video Codec Профиль формата : Baseline@L4 Настройки формата : 2 Ref Frames Параметр CABAC формата : Нет Параметр RefFrames формата : 2 кадра Параметр GOP формата : M=1, N=25 Идентификатор кодека : V_MPEG4/ISO/AVC Продолжительность : 35 м. 27 с. Вид битрейта : Постоянный Битрейт : 6 144 Кбит/сек Ширина : 1 920 пикселей Высота : 1 080 пикселей Соотношение сторон : 16:9 Режим частоты кадров : Постоянный Частота кадров : 25,000 кадров/сек Цветовое пространство : YUV Субдискретизация насыщенности : 4:2:0 Битовая глубина : 8 бит Тип развёртки : Прогрессивная Бит/(Пиксели*Кадры) : 0.119 Размер потока : 1,50 Гбайт (96%) Default : Да Forced : Нет Аудио Идентификатор : 2 Формат : AC-3 Формат/Информация : Audio Coding 3 Коммерческое название : Dolby Digital Идентификатор кодека : A_AC3 Продолжительность : 35 м. 27 с. Вид битрейта : Постоянный Битрейт : 256 Кбит/сек Каналы : 2 канала Channel layout : L R Частота : 48,0 КГц Частота кадров : 31,250 кадров/сек (1536 SPF) Метод сжатия : С потерями Размер потока : 64,9 Мбайт (4%) Заголовок : Язык : Russian Service kind : Complete Main Default : Да Forced : Нет

Всего файлов в раздаче: 9 
Dyadya.Lesha.S01.E01.2024.WEB-DL.1080p.mkv1.56 GB
Dyadya.Lesha.S01.E02.2024.WEB-DL.1080p.mkv1.13 GB
Dyadya.Lesha.S01.E03.2024.WEB-DL.1080p.mkv1.44 GB
Dyadya.Lesha.S01.E04.2024.WEB-DL.1080p.mkv1.39 GB
Dyadya.Lesha.S01.E05.2024.WEB-DL.1080p.mkv1.14 GB
Dyadya.Lesha.S01.E06.2024.WEB-DL.1080p.mkv1.16 GB
Dyadya.Lesha.S01.E07.2024.WEB-DL.1080p.mkv1.04 GB
Dyadya.Lesha.S01.E08.2024.WEB-DL.1080p.mkv1.27 GB
Dyadya.Lesha.S01.Film.o.filme.2024.WEB-DL.1080p.mkv1.41 GB

Похожие раздачи по запросу - Дядя
2024-06-18 magnet Александр «Котобус» Горбов - Дядя самых честных правил [Книга 1] (2024) MP3 1.67 GB ↑ 0 ↓ 0
2024-05-25 magnet Дядя Леша [S01 + Фильм о фильме] (2024) WEBRip-AVC от Generalfilm | КПК 1.16 GB ↑ 0 ↓ 0
2024-05-24 magnet Дядя Леша [S01 + Фильм о фильме] (2024) WEBRip 720p от Files-x 7.38 GB ↑ 0 ↓ 0
2024-05-23 magnet Дядя Леша [S01 + Фильм о фильме] (2024) WEBRip 3.39 GB ↑ 0 ↓ 0
2024-05-23 magnet Дядя Леша [S01 + Фильм о фильме] (2024) WEBRip-AVC от Files-x 3.28 GB ↑ 0 ↓ 0
2024-05-20 magnet Дядя Леша [01х01-06 из 08] (2024) WEBRip-AVC от Generalfilm | КПК 806.73 MB ↑ 0 ↓ 0
2024-05-16 magnet Дядя Леша [01-06 из 08] (2024) WEBRip 2.30 GB ↑ 0 ↓ 0

Комментарии


Зарегистрируйтесь чтобы добавить комментарий
Торрент клиент
byTorrent - программа для загрузки торрент-файлов.

Скачать byTorrent.exe (1,5 МБ)

Скачать byTorrent.zip (0,6 МБ)

Поддержи torrent.by
российских рублей
(300 российских рублей это 4$)

Обратная связь rss

End game ©