↑↓torrent.by
Поиск
Логин:  Регистрация
Пароль:

Дядя Леша [S01 + Фильм о фильме] (2024) WEBRip

download Скачать торрент-файл   magnet Магнитная ссылка Размер: 3.39 GB Добавлен: 2024-05-23 05:00
Пиры будут получены из сети DHT
Последний сидер был замечен 2024-06-12 21:16
Информация о фильме Название: Дядя Леша Год выхода: 2024 Жанр: Комедия, семейный Режиссёр: Дмитрий Невзоров В ролях: Тимофей Трибунцев, Анна Уколова, Сергей Лавыгин, Наталья Рычкова, Елизавета Хомякова, Хетаг Хинчагов, Григорий Дудник, Алексей Симонов, Иван Купреенко, Светлана Суханова, Илья Борисов, Олег Протасов, Никита Лето, Екатерина Таланова, Денис Пьянов, Зоя Зиновьева, Анна Ичетовкина, Марина Кикеева О фильме: Дядя Леша — обычный дворник, который работает в детском доме в небольшом городе. По ночам он грабит дома состоятельных жителей, а награбленную добычу он тратит на нужды этого же детского дома. Его схема дает сбой, когда трое самых хулиганистых воспитанников случайно застают дядю Лешу «за работой». Герою ничего не остается, кроме как взять молодежь в подельники… С этого момента жизнь дяди Леши превращается в аттракцион, и ему предстоит решить гору проблем от своих новых «компаньонов», запутать расследование своих же преступлений, вернуть доверие любимой женщины, расплатиться за серьезные ошибки прошлого, а самое главное — реализовать до конца свой «план Робин Гуда». Жизнь его подельников тоже меняется — ведь благодаря этой авантюре они обретают «отеческую фигуру». Страна: Россия Студия: ЛУКФИЛЬМ / LOOKFILM, Место силы, МТС Медиа Продолжительность: 9 x ~ 00:35:00 Язык: Русский Премьера в Росcии: 01 мая 2024 года Цифровой релиз: 01 мая 2024 года Примечание: Без рекламы Возраст: 16+ Файл Формат: AVI Качество: WEBRip Видео: XviD, ~ 1650 Кбит/с, 720x400 Звук: AC3, 2 ch, 192 Кбит/с Субтитры: Отсутствуют Семпл
[+] Скриншоты
[+] MIОбщее Полное имя : C:UsersAdminDesktopDyadya.Lesha.S01.2024.WEB-DLRipDyadya.Lesha.S01.E01.2024.WEB-DLRip.avi Формат : AVI Формат/Информация : Audio Video Interleave Размер файла : 470 Мбайт Продолжительность : 35 м. 27 с. Общий поток : 1 853 Кбит/сек Программа кодирования : Lavf59.16.100 Видео Идентификатор : 0 Формат : MPEG-4 Visual Профиль формата : Advanced Simple@L5 Настройки формата : BVOP1 / Custom Matrix Параметр BVOP формата : 1 Параметр QPel формата : Нет Параметр GMC формата : Без точки перехода Параметр матрицы формата : Выборочная Идентификатор кодека : XVID Идентификатор кодека/Подсказка : XviD Продолжительность : 35 м. 26 с. Битрейт : 1 650 Кбит/сек Ширина : 720 пикселей Высота : 400 пикселей Соотношение сторон : 16:9 Частота кадров : 25,000 кадров/сек Цветовое пространство : YUV Субдискретизация насыщенности : 4:2:0 Битовая глубина : 8 бит Тип развёртки : Прогрессивная Метод сжатия : С потерями Бит/(Пиксели*Кадры) : 0.229 Размер потока : 418 Мбайт (89%) Библиотека кодирования : XviD 69 Аудио Идентификатор : 1 Формат : AC-3 Формат/Информация : Audio Coding 3 Коммерческое название : Dolby Digital Идентификатор кодека : 2000 Продолжительность : 35 м. 27 с. Вид битрейта : Постоянный Битрейт : 192 Кбит/сек Каналы : 2 канала Channel layout : L R Частота : 48,0 КГц Частота кадров : 31,250 кадров/сек (1536 SPF) Битовая глубина : 16 бит Метод сжатия : С потерями Размер потока : 48,7 Мбайт (10%) Выравнивание : Соединение по промежуткам Продолжительность промежутка : 32 мс. (0,80 видеокадр) Service kind : Complete Main

Всего файлов в раздаче: 9 
Dyadya.Lesha.S01.E01.2024.WEB-DLRip.avi469.78 MB
Dyadya.Lesha.S01.E02.2024.WEB-DLRip.avi342.56 MB
Dyadya.Lesha.S01.E03.2024.WEB-DLRip.avi433.33 MB
Dyadya.Lesha.S01.E04.2024.WEB-DLRip.avi418.04 MB
Dyadya.Lesha.S01.E05.2024.WEB-DLRip.avi344.32 MB
Dyadya.Lesha.S01.E06.2024.WEB-DLRip.avi349.96 MB
Dyadya.Lesha.S01.E07.2024.WEB-DLRip.avi312.82 MB
Dyadya.Lesha.S01.E08.2024.WEB-DLRip.avi385.24 MB
Dyadya.Lesha.S01.Film.o.filme.2024.WEB-DLRip.avi418.61 MB

Похожие раздачи по запросу - Дядя
2024-05-25 magnet Дядя Леша [S01 + Фильм о фильме] (2024) WEBRip-AVC от Generalfilm | КПК 1.16 GB ↑ 1 ↓ 0
2024-05-24 magnet Дядя Леша [S01 + Фильм о фильме] (2024) WEBRip 720p от Files-x 7.38 GB ↑ 0 ↓ 0
2024-05-23 magnet Дядя Леша [S01 + Фильм о фильме] (2024) WEBRip 1080p 11.54 GB ↑ 0 ↓ 0
2024-05-23 magnet Дядя Леша [S01 + Фильм о фильме] (2024) WEBRip-AVC от Files-x 3.28 GB ↑ 0 ↓ 0
2024-05-20 magnet Дядя Леша [01х01-06 из 08] (2024) WEBRip-AVC от Generalfilm | КПК 806.73 MB ↑ 1 ↓ 0
2024-05-16 magnet Дядя Леша [01-06 из 08] (2024) WEBRip 2.30 GB ↑ 0 ↓ 0
2024-05-16 magnet Дядя Леша [01х01-06 из 08] (2024) WEBRip-AVC от Files-x 2.23 GB ↑ 0 ↓ 0

Комментарии


Зарегистрируйтесь чтобы добавить комментарий
Торрент клиент
byTorrent - программа для загрузки торрент-файлов.

Скачать byTorrent.exe (1,5 МБ)

Скачать byTorrent.zip (0,6 МБ)

Поддержи torrent.by
российских рублей
(300 российских рублей это 4$)

Обратная связь rss

End game ©