↑↓torrent.by
Поиск
Логин:  Регистрация
Пароль:

Министерство неджентльменских дел / Міністерство неджентльменської війни / The Ministry of Ungentlemanly Warfare (2024) WEB-DL 1080p | P | UKR

download Скачать торрент-файл   magnet Магнитная ссылка Размер: 7.53 GB Добавлен: 2024-05-23 11:00
Пиры будут получены из сети DHT
Последний сидер был замечен 2024-06-20 20:44
Информация о фильме Название: Министерство неджентльменских дел Оригинальное название: The Ministry of Ungentlemanly Warfare Год выхода: 2024 Жанр: боевик, драма, военный, история Режиссер: Гай Ричи В ролях: Генри Кавилл, Алан Ричсон, Рори Киннер, Генри Голдинг, Фредди Фокс, Эйса Гонсалес, Алекс Петтифер, Хиро Файнс Тиффин, Тиль Швайгер, Кэри Элвес О фильме: 1942 год, Великобритания. Они — лучшие из лучших. Отпетые авантюристы и первоклассные спецы, привыкшие действовать в одиночку. Но когда на кону стоит судьба всего мира, им приходится объединиться в сверхсекретное боевое подразделение и отправиться на выполнение дерзкой миссии против нацистов. Теперь их дело — война, и вести они её будут совершенно не по-джентльменски. Страна: США, Великобритания, Турция Продолжительность: 02:00:20 Перевод: Профессиональный (многоголосый закадровый) | DniproFilm (Украинский) Файл Кодек: x.264 Качество: WEB-DL 1080p Видео: AVC, 1920x800 (2.40:1), 23.976 fps, 6909 kb/s Аудио 1: E-AC3, 48.0 kHz, 6 ch, 640 kb/s | UKR Аудио 2: AC3, 48.0 kHz, 6 ch, 640 kb/s | UKR Аудио 3: E-AC3 JOC, 48.0 kHz, 6 ch, 768 kb/s | ENG Субтитры: украинские (forced), английские (full, SDH) Трейлер (Eng)
[+] MIGeneral Unique ID : 210091037371264120060585188086652555123 (0x9E0E0FDEB65748B1376AB02DF6274F73) Complete name : The Ministry of Ungentlemanly Warfare (2024) WEB-DL 1080p Ukr_Eng.mkv Format : Matroska Format version : Version 4 File size : 7.53 GiB Duration : 2 h 0 min Overall bit rate : 8 961 kb/s Encoded date : UTC 2024-05-22 16:25:51 Writing application : mkvmerge v84.0 ('Sleeper') 64-bit Writing library : libebml v1.4.5 + libmatroska v1.7.1 Cover : Yes Attachments : Cover.jpg Video ID : 1 Format : AVC Format/Info : Advanced Video Codec Format profile : High@L4 Format settings : CABAC / 4 Ref Frames Format settings, CABAC : Yes Format settings, Reference frames : 4 frames Codec ID : V_MPEG4/ISO/AVC Duration : 2 h 0 min Bit rate mode : Constant Bit rate : 6 909 kb/s Nominal bit rate : 10 000 kb/s Width : 1 920 pixels Height : 800 pixels Display aspect ratio : 2.40:1 Frame rate mode : Constant Frame rate : 23.976 (24000/1001) FPS Color space : YUV Chroma subsampling : 4:2:0 Bit depth : 8 bits Scan type : Progressive Bits/(Pixel*Frame) : 0.188 Stream size : 5.81 GiB (77%) Default : Yes Forced : No Color range : Limited Color primaries : BT.709 Transfer characteristics : BT.709 Matrix coefficients : BT.709 Audio #1 ID : 2 Format : E-AC-3 Format/Info : Enhanced AC-3 Commercial name : Dolby Digital Plus Codec ID : A_EAC3 Duration : 2 h 0 min Bit rate mode : Constant Bit rate : 640 kb/s Channel(s) : 6 channels Channel layout : L R C LFE Ls Rs Sampling rate : 48.0 kHz Frame rate : 31.250 FPS (1536 SPF) Compression mode : Lossy Stream size : 551 MiB (7%) Title : MVO (DniproFilm) Language : Ukrainian Service kind : Complete Main Default : Yes Forced : No Audio #2 ID : 3 Format : AC-3 Format/Info : Audio Coding 3 Commercial name : Dolby Digital Codec ID : A_AC3 Duration : 2 h 0 min Bit rate mode : Constant Bit rate : 640 kb/s Channel(s) : 6 channels Channel layout : L R C LFE Ls Rs Sampling rate : 48.0 kHz Frame rate : 31.250 FPS (1536 SPF) Compression mode : Lossy Stream size : 551 MiB (7%) Title : MVO (DniproFilm) Language : Ukrainian Service kind : Complete Main Default : No Forced : No Audio #3 ID : 4 Format : E-AC-3 JOC Format/Info : Enhanced AC-3 with Joint Object Coding Commercial name : Dolby Digital Plus with Dolby Atmos Codec ID : A_EAC3 Duration : 2 h 0 min Bit rate mode : Constant Bit rate : 768 kb/s Channel(s) : 6 channels Channel layout : L R C LFE Ls Rs Sampling rate : 48.0 kHz Frame rate : 31.250 FPS (1536 SPF) Compression mode : Lossy Stream size : 661 MiB (9%) Title : Original Language : English Service kind : Complete Main Default : No Forced : No Complexity index : 16 Number of dynamic objects : 15 Bed channel count : 1 channel Bed channel configuration : LFE Text #1 ID : 5 Format : UTF-8 Codec ID : S_TEXT/UTF8 Codec ID/Info : UTF-8 Plain Text Duration : 1 h 49 min Bit rate : 17 b/s Count of elements : 156 Stream size : 13.7 KiB (0%) Title : Forced (colored) Language : Ukrainian Default : Yes Forced : No Text #2 ID : 6 Format : UTF-8 Codec ID : S_TEXT/UTF8 Codec ID/Info : UTF-8 Plain Text Duration : 1 h 49 min Bit rate : 10 b/s Count of elements : 155 Stream size : 8.53 KiB (0%) Title : Forced Language : Ukrainian Default : No Forced : No Text #3 ID : 7 Format : UTF-8 Codec ID : S_TEXT/UTF8 Codec ID/Info : UTF-8 Plain Text Duration : 1 h 47 min Bit rate : 54 b/s Count of elements : 1488 Stream size : 43.0 KiB (0%) Title : Full Language : English Default : No Forced : No Text #4 ID : 8 Format : UTF-8 Codec ID : S_TEXT/UTF8 Codec ID/Info : UTF-8 Plain Text Duration : 1 h 59 min Bit rate : 66 b/s Count of elements : 2036 Stream size : 57.8 KiB (0%) Title : SDH Language : English Default : No Forced : No Menu 00:00:00.000 : en:Chapter 01 00:07:21.358 : en:Chapter 02 00:17:44.439 : en:Chapter 03 00:30:04.721 : en:Chapter 04 00:41:41.376 : en:Chapter 05 00:52:45.331 : en:Chapter 06 01:03:25.638 : en:Chapter 07 01:13:00.380 : en:Chapter 08 01:23:44.899 : en:Chapter 09 01:35:07.624 : en:Chapter 10 01:44:36.026 : en:Chapter 11 01:50:28.878 : en:Chapter 12
[+] Скриншоты

Всего файлов в раздаче: 1 
The Ministry of Ungentlemanly Warfare (2024) WEB-DL 1080p Ukr_Eng.mkv7.53 GB

Похожие раздачи по запросу - Министерство
2024-06-20 magnet Министерство неджентльменских дел / The Ministry of Ungentlemanly Warfare (2024) UHD BDRemux 2160p | 4K | HDR10 | D, P, P2, A 72.43 GB ↑ 0 ↓ 2
2024-06-20 magnet Министерство неджентльменских дел / The Ministry of Ungentlemanly Warfare (2024) BDRip от DoMiNo & селезень | D | Мосфильм-Мастер 1.46 GB ↑ 0 ↓ 6
2024-06-19 magnet Министерство неджентльменских дел / The Ministry of Ungentlemanly Warfare (2024) BDRip от MegaPeer | D 1.46 GB ↑ 0 ↓ 0
2024-06-19 magnet Министерство неджентльменских дел / The Ministry of Ungentlemanly Warfare (2024) BDRip 1080p от MegaPeer | D, P, P2, A 13.48 GB ↑ 0 ↓ 4
2024-06-19 magnet Министерство неджентльменских дел / The Ministry of Ungentlemanly Warfare (2024) BDRip 1080p от селезень | D 10.12 GB ↑ 0 ↓ 4
2024-06-19 magnet Министерство неджентльменских дел / The Ministry of Ungentlemanly Warfare (2024) BDRip 720p от DoMiNo & селезень | D | Мосфильм-Мастер 4.46 GB ↑ 0 ↓ 4
2024-06-19 magnet Министерство неджентльменских дел / The Ministry of Ungentlemanly Warfare (2024) BDRip от MegaPeer | D, P2 2.19 GB ↑ 0 ↓ 3

Комментарии


Зарегистрируйтесь чтобы добавить комментарий
Торрент клиент
byTorrent - программа для загрузки торрент-файлов.

Скачать byTorrent.exe (1,5 МБ)

Скачать byTorrent.zip (0,6 МБ)

Поддержи torrent.by
российских рублей
(300 российских рублей это 4$)

Обратная связь rss

End game ©