↑↓torrent.by
Поиск
Логин:  Регистрация
Пароль:

Sensual Lounge Music Universe - Levitating Sensuality: Sexy Smooth Jazz For Wild Sensations [24-bit Hi-Res] (2024) FLAC

download Скачать торрент-файл   magnet Магнитная ссылка Размер: 607.32 MB Добавлен: 2024-05-23 17:00
Пиры будут получены из сети DHT
Последний сидер был замечен 2024-06-12 02:38
Название: Levitating Sensuality: Sexy Smooth Jazz For Wild Sensations Исполнитель: Sensual Lounge Music Universe Композитор: Marco Rinaldo Год: 2024 Жанр: Jazz Издатель (лейбл): Pentatonic Entertainment Продолжительность: 01:03:01 Формат/Кодек: FLAC Тип рипа: Tracks Битрейт аудио: Lossless Разрядность: 24 Bit/44,1 kHz
[+] Трек-лист 01. Late Night Lullabies (00:03:36) 02. Levitating Love (00:04:09) 03. Return To Bed (00:04:08) 04. Savage Soundtrack (00:04:54) 05. Sexy Frequencies (00:03:36) 06. Pure Eroticism (00:03:37) 07. Luxury Body Language (00:03:52) 08. The Power Of Sensuality (00:04:30) 09. Fearless Femmes (00:03:51) 10. Ethereal Feeling (00:04:54) 11. In My Mood (00:04:30) 12. The Night We Met (00:04:54) 13. Lady Legend (00:03:51) 14. Teaseme Cherry (00:04:09) 15. Red Hot Romance (00:04:30)
[+] DRM foobar2000 1.5.5 / Замер динамического диапазона (DR) 1.1.1 ------------------------------------------------------------------------------- Анализ: Sensual Lounge Music Universe / Levitating Sensuality: Sexy Smooth Jazz For Wild Sensations -------------------------------------------------------------------------------- DR Пики RMS Продолжительность трека -------------------------------------------------------------------------------- DR12 -0.96 дБ -14.21 дБ 3:36 01-Late Night Lullabies DR9 -3.79 дБ -13.65 дБ 4:09 02-Levitating Love DR8 -3.62 дБ -13.08 дБ 4:08 03-Return To Bed DR13 -1.00 дБ -14.70 дБ 4:54 04-Savage Soundtrack DR11 -0.90 дБ -13.44 дБ 3:36 05-Sexy Frequencies DR11 -0.96 дБ -13.09 дБ 3:37 06-Pure Eroticism DR12 -1.00 дБ -13.92 дБ 3:52 07-Luxury Body Language DR12 -0.99 дБ -13.77 дБ 4:30 08-The Power Of Sensuality DR13 -1.01 дБ -14.89 дБ 3:51 09-Fearless Femmes DR12 -0.96 дБ -14.32 дБ 4:54 10-Ethereal Feeling DR12 -0.99 дБ -13.55 дБ 4:30 11-In My Mood DR12 -0.98 дБ -14.07 дБ 4:54 12-The Night We Met DR12 -0.71 дБ -13.67 дБ 3:51 13-Lady Legend DR9 -2.82 дБ -12.86 дБ 4:09 14-Teaseme Cherry DR11 -1.01 дБ -13.72 дБ 4:30 15-Red Hot Romance -------------------------------------------------------------------------------- Количество треков: 15 Реальные значения DR: DR11 Частота: 44100 Гц Каналов: 2 Разрядность: 24 Битрейт: 1421 кбит/с Кодек: FLAC ================================================================================
Время раздачи: 24/7 (минимум до появления первых 3-5 скачавших, на раздачи не возвращаюсь) Первое правило участника файлообмена: "Скачал сам - дай скачать другому!"

Всего файлов в раздаче: 16 
01. Late Night Lullabies.flac33.46 MB
02. Levitating Love.flac40.67 MB
03. Return to Bed.flac40.43 MB
04. Savage Soundtrack.flac43.47 MB
05. Sexy Frequencies.flac36.30 MB
06. Pure Eroticism.flac37.13 MB
07. Luxury Body Language.flac36.72 MB
08. The Power of Sensuality.flac44.88 MB
09. Fearless Femmes.flac37.54 MB
10. Ethereal Feeling.flac42.13 MB
Показать все файлы

Похожие раздачи по запросу - Sensual
2024-05-23 magnet Erotic Arabic Chill: Sensual Oriental Bar and Sexy Lounge Nights (2024) FLAC 380.04 MB ↑ 0 ↓ 0
2024-05-23 magnet Hypnotic Sex: Sensual Experience of Intimacy and Orgasm [24-bit Hi-Res] (2024) FLAC 894.10 MB ↑ 0 ↓ 0
2024-05-21 magnet B-Tribe - Fiesta Fatal!, Sensual Sensual, Suave Suave (1993 - 1998) FLAC 930.24 MB ↑ 0 ↓ 0
2024-05-20 magnet Wild Sexy Summer Chill: Beach Party Mix, Cocktail Bar, Sensual Lounge 2024 [24-bit Hi-Res] (2024) FLAC 713.57 MB ↑ 0 ↓ 0
2022-05-04 magnet VA - The Naked Lounge, Vol. 1-2 [Sexy and Sensual Sound] (2015) MP3 420.07 MB ↑ 0 ↓ 0
2022-04-28 magnet VA - Chillout Lovers Lounge, Vol.2 [A Touch Of Sensual Downtempo Electronic] (2022) MP3 135.07 MB ↑ 0 ↓ 0
2022-04-28 magnet VA - Chillout Lovers Lounge, Vol.1 [A Touch Of Sensual Downtempo Electronic] (2022) MP3 131.30 MB ↑ 0 ↓ 0

Комментарии


Зарегистрируйтесь чтобы добавить комментарий
Торрент клиент
byTorrent - программа для загрузки торрент-файлов.

Скачать byTorrent.exe (1,5 МБ)

Скачать byTorrent.zip (0,6 МБ)

Поддержи torrent.by
российских рублей
(300 российских рублей это 4$)

Обратная связь rss

End game ©