↑↓torrent.by
Поиск
Логин:  Регистрация
Пароль:

Первый класс [S01] (2024) WEB-DL-HEVC 2160p | 4K | SDR

download Скачать торрент-файл   magnet Магнитная ссылка Размер: 42.08 GB Добавлен: 2024-05-23 17:00
Пиры будут получены из сети DHT
Последний сидер был замечен 2024-06-01 14:25
Информация о сериале Оригинальное название: Первый класс Год выпуска: 2024 Жанр: Комедия, драма, мелодрама Выпущено: Россия, Иви, Star Media Vision Режиссер: Светлана Самошина В ролях: Юлия Хлынина, Марина Васильева, Анна Чиповская, Елена Лядова, Артём Быстров, Никита Ефремов, Ростислав Бершауэр, Михаил Тройник, Стася Милославская, Артём Ткаченко О сериале: Три подруги, трое шестилетних детей. И всего одно место в лучшей школе Петербурга. Бедная, но умная и высокомерная разведенка Таня, карьеристка и жена майора полиции Аня и красавица-жена бизнесмена Лена — ради любимого ребенка каждая из них готова рискнуть отношениями, дружбой и даже чувством собственного достоинства. Файл Формат: MKV Качество: WEB-DL-HEVC 2160p | 4K | SDR Видео: MPEG-H HEVC, ~ 19.9 Мбит/с, 3840x2160, 10 бит Аудио: AAC, 6 ch, 576 Кбит/с Продолжительность: 8 x ~ 00:40:00 Язык: Русский Субтитры: Нет
[+] MediaInfo:General Unique ID : 294381900042729661660596269677386545998 (0xDD77E4425FCD490F2D2747A8B0E63B4E) Complete name : F:TorrentsПервый.класс.S01.2160p.WEB-DL.x265Первый.класс.S01E01.2160p.WEB-DL.x265.mkv Format : Matroska Format version : Version 4 File size : 5.25 GiB Duration : 36 min 49 s Overall bit rate : 20.4 Mb/s Frame rate : 25.000 FPS Encoded date : 2024-05-22 21:43:05 UTC Writing application : mkvmerge v82.0 ('I'm The President') 64-bit Writing library : libebml v1.4.5 + libmatroska v1.7.1 Video ID : 1 Format : HEVC Format/Info : High Efficiency Video Coding Format profile : Main 10@L5@High Codec ID : V_MPEGH/ISO/HEVC Duration : 36 min 49 s Bit rate : 19.9 Mb/s Width : 3 840 pixels Height : 2 160 pixels Display aspect ratio : 16:9 Frame rate mode : Constant Frame rate : 25.000 FPS Color space : YUV Chroma subsampling : 4:2:0 Bit depth : 10 bits Bits/(Pixel*Frame) : 0.096 Stream size : 5.11 GiB (97%) Writing library : x265 2.6: 10bit Encoding settings : cpuid=1173503 / frame-threads=6 / wpp / no-pmode / no-pme / no-psnr / no-ssim / log-level=2 / input-csp=1 / input-res=3840x2160 / interlace=0 / total-frames=0 / level-idc=50 / high-tier=1 / uhd-bd=0 / ref=3 / no-allow-non-conformance / repeat-headers / annexb / no-aud / no-hrd / info / hash=0 / no-temporal-layers / no-open-gop / min-keyint=50 / keyint=50 / bframes=3 / b-adapt=2 / b-pyramid / bframe-bias=0 / rc-lookahead=20 / lookahead-slices=8 / scenecut=0 / no-intra-refresh / ctu=64 / min-cu-size=8 / no-rect / no-amp / max-tu-size=32 / tu-inter-depth=1 / tu-intra-depth=1 / limit-tu=0 / rdoq-level=0 / dynamic-rd=0.00 / no-ssim-rd / signhide / no-tskip / nr-intra=0 / nr-inter=0 / constrained-intra / strong-intra-smoothing / max-merge=2 / limit-refs=3 / no-limit-modes / me=1 / subme=2 / merange=80 / temporal-mvp / weightp / no-weightb / no-analyze-src-pics / deblock=0:0 / sao / no-sao-non-deblock / rd=3 / no-early-skip / rskip / no-fast-intra / no-tskip-fast / no-cu-lossless / no-b-intra / no-splitrd-skip / rdpenalty=0 / psy-rd=2.00 / psy-rdoq=0.00 / no-rd-refine / analysis-reuse-mode=0 / no-lossless / cbqpoffs=0 / crqpoffs=0 / rc=abr / bitrate=20000 / qcomp=0.60 / qpstep=4 / stats-write=0 / stats-read=0 / vbv-maxrate=30000 / vbv-bufsize=60000 / vbv-init=0.9 / ipratio=1.40 / pbratio=1.30 / aq-mode=1 / aq-strength=1.00 / cutree / zone-count=0 / no-strict-cbr / qg-size=32 / no-rc-grain / qpmax=69 / qpmin=0 / no-const-vbv / sar=1 / overscan=0 / videoformat=5 / range=0 / colorprim=2 / transfer=2 / colormatrix=2 / chromaloc=0 / display-window=0 / max-cll=0,0 / min-luma=0 / max-luma=1023 / log2-max-poc-lsb=8 / vui-timing-info / vui-hrd-info / slices=1 / no-opt-qp-pps / no-opt-ref-list-length-pps / no-multi-pass-opt-rps / scenecut-bias=0.05 / no-opt-cu-delta-qp / no-aq-motion / no-hdr / no-hdr-opt / no-dhdr10-opt / analysis-reuse-level=5 / scale-factor=0 / refine-intra=0 / refine-inter=0 / refine-mv=0 / no-limit-sao / ctu-info=0 / no-lowpass-dct / refine-mv-type=0 / copy-pic=1 Language : English Default : Yes Forced : No Color range : Limited Audio ID : 2 Format : AAC LC Format/Info : Advanced Audio Codec Low Complexity Codec ID : A_AAC-2 Duration : 36 min 49 s Bit rate : 576 kb/s Channel(s) : 6 channels Channel layout : C L R Ls Rs LFE Sampling rate : 48.0 kHz Frame rate : 46.875 FPS (1024 SPF) Compression mode : Lossy Stream size : 151 MiB (3%) Language : Russian Default : Yes Forced : No
[+] Скриншоты

Всего файлов в раздаче: 8 
[NOOBDL]Первый.класс.S01E01.2160p.WEB-DL.x265.mkv5.25 GB
[NOOBDL]Первый.класс.S01E02.2160p.WEB-DL.x265.mkv4.82 GB
[NOOBDL]Первый.класс.S01E03.2160p.WEB-DL.x265.mkv5.52 GB
[NOOBDL]Первый.класс.S01E04.2160p.WEB-DL.x265.mkv5.04 GB
[NOOBDL]Первый.класс.S01E05.2160p.WEB-DL.x265.mkv4.75 GB
[NOOBDL]Первый.класс.S01E06.2160p.WEB-DL.x265.mkv5.14 GB
[NOOBDL]Первый.класс.S01E07.2160p.WEB-DL.x265.mkv5.48 GB
[NOOBDL]Первый.класс.S01E08.2160p.WEB-DL.x265.mkv6.07 GB

Похожие раздачи по запросу - Первый
2024-06-16 magnet Стивен Уокер - Первый: Новая история Гагарина и космической гонки (2024) MP3 428.79 MB ↑ 0 ↓ 0
2024-05-30 magnet Первый класс [S01] (2024) WEB-DLRip-AVC от Generalfilm | КПК 1.30 GB ↑ 0 ↓ 0
2024-05-24 magnet Первый класс [S01] (2024) WEB-DLRip-AVC от Files-х 4.06 GB ↑ 0 ↓ 0
2024-05-24 magnet Первый класс [S01] (2024) WEB-DLRip от Files-x 4.04 GB ↑ 0 ↓ 0
2024-05-23 magnet Первый класс [S01] (2024) WEB-DL 720p от ExKinoRay 6.03 GB ↑ 0 ↓ 0
2024-05-23 magnet Новый Мир - Первый (2024) MP3 109.08 MB ↑ 0 ↓ 0
2024-05-23 magnet Первый класс / Серии: 1-8 из 8 [2024, драма, мелодрама, комедия, WEBRip-AVC] от Aleksan55 4.07 GB ↑ 0 ↓ 0

Кто качает (только для создателя раздачи и модераторов): Локальные пиры отсутствуют

Комментарии


Зарегистрируйтесь чтобы добавить комментарий
Торрент клиент
byTorrent - программа для загрузки торрент-файлов.

Скачать byTorrent.exe (1,5 МБ)

Скачать byTorrent.zip (0,6 МБ)

Поддержи torrent.by
российских рублей
(300 российских рублей это 4$)

Обратная связь rss

End game ©