↑↓torrent.by
Поиск
Логин:  Регистрация
Пароль:

Проклятие дудочника / The Piper (2023) BDRip 1080p от MegaPeer | D

download Скачать торрент-файл   magnet Магнитная ссылка Размер: 9.33 GB Добавлен: 2024-05-24 05:00
Пиры будут получены из сети DHT
Последний сидер был замечен 2024-06-04 14:14
Информация Название: Проклятие дудочника Оригинальное название: The Piper Год выхода: 2023 Жанр: Ужасы Режиссер: Эрлингур Тороддсен В ролях: Шарлотта Хоуп, Джулиан Сэндс, Алексис Родни, Оливер Сэвелл, Филипп Кристофер, Кейт Николс, Луиз Голд, Саломе Чандлер, Ива О’Флэнаган, Пиппа Уинслоу Описание: Древняя легенда о Пегом Дудочнике пугала людей на протяжении веков. Но что, если не все в ней вымысел, а мистический странник в пёстром костюме, который безжалостно обрекал целые поселения на смерть, существует? Мэл далека от древних историй: она обычный музыкант в современном мире и старается лишь обеспечить свою дочь. Однажды ей удается наиграть мелодию, способную вводить людей в транс, но таким даром легендарный Гамельнский крысолов делиться не станет. Теперь древнее зло опять появится в этом мире, чтобы написать новую кровавую историю. Страна: США Студия: Millennium Media Продолжительность: 01:35:30 Перевод: Профессиональный (полное дублирование) | Велес | Файл Качество: BDRip 1080p Исходник: The Piper 2023 1080p EUR Blu-ray AVC DTS-HD MA 5.1-Tasko Формат: MKV Кодек: MPEG-4 AVC Видео: 1920x804 (2.40:1), 24 fps, MPEG-4 AVC ~ 12,6 Мbps avg, 0.340 bit/pixel Аудио: AC3, 48 kHz, 6 ch, ~384.00 kbps avg | русский | DUB Аудио: AC3, 48 kHz, 6 ch, ~384.00 kbps avg | русский | DUB Аудио: AC3, 48 kHz, 6 ch, ~640.00 kbps avg | английский | Субтитры: Английские (Full, SDH)
[+] Инфо-файлОбщее Уникальный идентификатор : 215380681891581158437514422699775363554 (0xA208CF7AF21EE5E381CCC23A8DF609E2) Полное имя : The.Piper.2023.1080p.BluRay.DD.5.1.x264-MegaPeer.mkv Формат : Matroska Версия формата : Version 4 Размер файла : 9,33 Гбайт Продолжительность : 1 ч. 35 мин. Общий битрейт : 14,0 Мбит/сек Частота кадров : 24,000 кадра/сек Название фильма : Проклятие дудочника / The Piper (2023) от stillet@MegaPeer Дата кодирования : 2024-05-23 16:35:25 UTC Программа кодирования : mkvmerge v15.0.0 ('Duel with the Devil') 64-bit Библиотека кодирования : libebml v1.3.5 + libmatroska v1.4.5 Обложка : Yes Attachments : cover.jpg Видео Идентификатор : 1 Формат : AVC Формат/Информация : Advanced Video Codec Профиль формата : High@L4.1 Настройки формата : CABAC / 5 Ref Frames Параметр CABAC формата : Да Параметр RefFrames формата : 5 кадров Идентификатор кодека : V_MPEG4/ISO/AVC Продолжительность : 1 ч. 35 мин. Битрейт : 12,6 Мбит/сек Ширина : 1 920 пикселей Высота : 804 пикселя Соотношение сторон дисплея : 2,39:1 Режим частоты кадров : Постоянный Частота кадров : 24,000 кадра/сек Цветовое пространство : YUV Цветовая субдискретизация : 4:2:0 Битовая глубина : 8 бит Тип развёртки : Прогрессивная Бит/(Пиксели*Кадры) : 0.340 Размер потока : 8,39 Гбайт (90%) Библиотека кодирования : x264 core 164 r3156+57M stillet t_mod_New Параметры библиотеки кодирования : cabac=1 / ref=5 / deblock=1:-3:-3 / analyse=0x3:0x113 / me=umh / subme=10 / psy=1 / fade_compensate=0.00 / psy_rd=1.03:0.02 / mixed_ref=1 / me_range=32 / chroma_me=1 / trellis=2 / 8x8dct=1 / cqm=0 / deadzone=21,11 / fast_pskip=0 / chroma_qp_offset=-3 / threads=12 / lookahead_threads=3 / sliced_threads=0 / nr=0 / decimate=0 / interlaced=0 / bluray_compat=0 / constrained_intra=0 / fgo=0 / bframes=11 / b_pyramid=2 / b_adapt=2 / b_bias=0 / direct=3 / weightb=1 / open_gop=0 / weightp=2 / keyint=240 / keyint_min=24 / scenecut=40 / intra_refresh=0 / rc_lookahead=40 / rc=2pass / mbtree=0 / bitrate=12592 / ratetol=1.0 / qcomp=0.60 / qpmin=0:0:0 / qpmax=69:69:69 / qpstep=4 / cplxblur=20.0 / qblur=0.5 / vbv_maxrate=50000 / vbv_bufsize=62500 / nal_hrd=none / filler=0 / ip_ratio=1.40 / pb_ratio=1.30 / aq=1:1.10 / aq-sensitivity=10.00 / aq-factor=1.00:1.00:1.00 / aq2=0 / aq3=0 Язык : Английский По умолчанию : Да Принудительно : Нет Аудио #1 Идентификатор : 2 Формат : AC-3 Формат/Информация : Audio Coding 3 Коммерческое название : Dolby Digital Идентификатор кодека : A_AC3 Продолжительность : 1 ч. 35 мин. Вид битрейта : Постоянный Битрейт : 384 Кбит/сек Канал(-ы) : 6 каналов Расположение каналов : L R C LFE Ls Rs Частота дискретизации : 48,0 КГц Частота кадров : 31,250 кадров/сек (1536 SPF) Метод сжатия : С потерями Размер потока : 262 Мбайт (3%) Заголовок : DUB | Велес Язык : Русский Вид сервиса : Complete Main По умолчанию : Да Принудительно : Да AC3_metadata cmixlev : -3.0 dB surmixlev : -3 dB Аудио #2 Идентификатор : 3 Формат : E-AC-3 Формат/Информация : Enhanced AC-3 Коммерческое название : Dolby Digital Plus Идентификатор кодека : A_EAC3 Продолжительность : 1 ч. 35 мин. Вид битрейта : Постоянный Битрейт : 384 Кбит/сек Канал(-ы) : 6 каналов Расположение каналов : L R C LFE Ls Rs Частота дискретизации : 48,0 КГц Частота кадров : 31,250 кадров/сек (1536 SPF) Метод сжатия : С потерями Размер потока : 262 Мбайт (3%) Заголовок : DUB | Велес Язык : Русский Вид сервиса : Complete Main По умолчанию : Нет Принудительно : Нет Аудио #3 Идентификатор : 4 Формат : AC-3 Формат/Информация : Audio Coding 3 Коммерческое название : Dolby Digital Идентификатор кодека : A_AC3 Продолжительность : 1 ч. 35 мин. Вид битрейта : Постоянный Битрейт : 640 Кбит/сек Канал(-ы) : 6 каналов Расположение каналов : L R C LFE Ls Rs Частота дискретизации : 48,0 КГц Частота кадров : 31,250 кадров/сек (1536 SPF) Метод сжатия : С потерями Размер потока : 437 Мбайт (5%) Язык : Английский Вид сервиса : Complete Main По умолчанию : Нет Принудительно : Нет AC3_metadata cmixlev : -3.0 dB surmixlev : -3 dB Текст #1 Идентификатор : 5 Формат : UTF-8 Идентификатор кодека : S_TEXT/UTF8 Идентификатор кодека/Информация : UTF-8 Plain Text Продолжительность : 1 ч. 28 мин. Битрейт : 34 бит/сек Частота кадров : 0,134 кадр/сек Число элементов : 713 Размер потока : 22,0 КиБ (0%) Заголовок : Full Язык : Английский По умолчанию : Нет Принудительно : Нет Текст #2 Идентификатор : 6 Формат : UTF-8 Идентификатор кодека : S_TEXT/UTF8 Идентификатор кодека/Информация : UTF-8 Plain Text Продолжительность : 1 ч. 34 мин. Битрейт : 47 бит/сек Частота кадров : 0,225 кадр/сек Число элементов : 1272 Размер потока : 32,8 КиБ (0%) Заголовок : SDH Язык : Английский По умолчанию : Нет Принудительно : Нет Меню 00:00:00.000 : en:Chapter 01 00:07:31.958 : en:Chapter 02 00:12:49.625 : en:Chapter 03 00:22:19.625 : en:Chapter 04 00:28:32.458 : en:Chapter 05 00:37:23.458 : en:Chapter 06 00:44:45.625 : en:Chapter 07 00:52:32.333 : en:Chapter 08 01:03:23.792 : en:Chapter 09 01:09:04.583 : en:Chapter 10 01:18:31.792 : en:Chapter 11 01:27:00.958 : en:Chapter 12 01:35:28.750 : en:Chapter 13
Релиз:

Всего файлов в раздаче: 1 
The.Piper.2023.1080p.BluRay.DD.5.1.x264-MegaPeer.mkv9.33 GB

Похожие раздачи по запросу - Проклятие
2024-05-25 magnet Проклятие дудочника / The Piper (2023) BDRip-AVC от DoMiNo & селезень | D | Велес 1.46 GB ↑ 0 ↓ 0
2024-05-25 magnet Проклятие дудочника / The Piper (2023) BDRip 720p от DoMiNo & селезень | D | Велес 4.17 GB ↑ 0 ↓ 0
2024-05-24 magnet Проклятие дудочника / The Piper (2023) BDRip от MegaPeer | D 1.46 GB ↑ 0 ↓ 0
2023-03-03 magnet Проклятие черного паука / Die Schwarze Spinne / The Black Spider (2022) BDRip от MegaPeer | D 1.46 GB ↑ 0 ↓ 0

Комментарии


Зарегистрируйтесь чтобы добавить комментарий
Торрент клиент
byTorrent - программа для загрузки торрент-файлов.

Скачать byTorrent.exe (1,5 МБ)

Скачать byTorrent.zip (0,6 МБ)

Поддержи torrent.by
российских рублей
(300 российских рублей это 4$)

Обратная связь rss

End game ©