↑↓torrent.by
Поиск
Логин:  Регистрация
Пароль:

Кухня со звездами / À la belle étoile / Sugar and Stars (2023) BDRip 1080p от MegaPeer | D

download Скачать торрент-файл   magnet Магнитная ссылка Размер: 9.08 GB Раздают: 0 Качают: 1 Добавлен: 2024-05-24 05:00
Пиры будут получены из сети DHT
Последний сидер был замечен 2024-06-18 00:56
Информация Название: Кухня со звездами Оригинальное название: À la belle étoile / Sugar and Stars Год выхода: 2023 Жанр: Драма, биография Режиссер: Себастьян Тюлар В ролях: Риад, Любна Абидар, Марван Амескер, Дикош, Феникс Броссар, Паскаль Лежитимюс, Жан-Ив Бертело, Сандрин Дюма, Майкл Клэр, Кристин Ситти Описание: С детства у Язида есть одна страсть — выпечка. Выросший в приемных семьях и приютах, молодой человек пытается воплотить свою мечту в реальность: работать с величайшими кондитерами и стать лучшим. Страна: Франция Студия: Atelier de Production, Canal+ , Centre National du Cinéma, Ciné, De l'autre côté du périph', France 2 Cinéma, France Télévision, Kiss Films, Procirep, SG Image 2020 Продолжительность: 01:50:42 Перевод: Профессиональный (полное дублирование) | Pride Production | Файл Качество: BDRip 1080p Исходник: Sugar.and.Stars.2023.MULTi.COMPLETE.BLURAY-MONUMENT Формат: MKV Кодек: MPEG-4 AVC Видео: 1920x804 (2.40:1), 24 fps, MPEG-4 AVC ~ 10.2 Mbps avg, 0.276 bit/pixel Аудио: AC3, 48 kHz, 6 ch, ~448.00 kbps avg | русский | DUB Аудио: E-AC3, 48 kHz, 6 ch, ~448.00 kbps avg | русский | DUB Аудио: AC3, 48 kHz, 6 ch, ~640.00 kbps avg | французский | Субтитры: Русские (Full), Французские (Forced, SDH), Английские (Full)
[+] Инфо-файлОбщее Уникальный идентификатор : 221932568719505676816618693255108306516 (0xA6F6A870EDF39D52BE9D522A6DE92654) Полное имя : DesktopSugar.and.Stars.2023.1080p.BluRay.DD.5.1.x264-MegaPeer.mkv Формат : Matroska Версия формата : Version 4 Размер файла : 9,08 Гбайт Продолжительность : 1 ч. 50 мин. Общий битрейт : 11,7 Мбит/сек Частота кадров : 24,000 кадра/сек Название фильма : Кухня со звездами / À la belle étoile / Sugar and Stars (2023) от stillet@MegaPeer Дата кодирования : 2024-05-23 14:49:14 UTC Программа кодирования : mkvmerge v15.0.0 ('Duel with the Devil') 64-bit Библиотека кодирования : libebml v1.3.5 + libmatroska v1.4.5 Обложка : Yes Attachments : cover.jpg Видео Идентификатор : 1 Формат : AVC Формат/Информация : Advanced Video Codec Профиль формата : High@L4.1 Настройки формата : CABAC / 5 Ref Frames Параметр CABAC формата : Да Параметр RefFrames формата : 5 кадров Идентификатор кодека : V_MPEG4/ISO/AVC Продолжительность : 1 ч. 50 мин. Битрейт : 10,2 Мбит/сек Ширина : 1 920 пикселей Высота : 804 пикселя Соотношение сторон дисплея : 2,39:1 Режим частоты кадров : Постоянный Частота кадров : 24,000 кадра/сек Цветовое пространство : YUV Цветовая субдискретизация : 4:2:0 Битовая глубина : 8 бит Тип развёртки : Прогрессивная Бит/(Пиксели*Кадры) : 0.276 Размер потока : 7,89 Гбайт (87%) Библиотека кодирования : x264 core 164 r3156+57M stillet t_mod_New Параметры библиотеки кодирования : cabac=1 / ref=5 / deblock=1:-3:-3 / analyse=0x3:0x113 / me=umh / subme=10 / psy=1 / fade_compensate=0.00 / psy_rd=1.03:0.01 / mixed_ref=1 / me_range=32 / chroma_me=1 / trellis=2 / 8x8dct=1 / cqm=0 / deadzone=21,11 / fast_pskip=0 / chroma_qp_offset=-3 / threads=12 / lookahead_threads=3 / sliced_threads=0 / nr=0 / decimate=0 / interlaced=0 / bluray_compat=0 / constrained_intra=0 / fgo=0 / bframes=11 / b_pyramid=2 / b_adapt=2 / b_bias=0 / direct=3 / weightb=1 / open_gop=0 / weightp=2 / keyint=240 / keyint_min=24 / scenecut=40 / intra_refresh=0 / rc_lookahead=40 / rc=2pass / mbtree=0 / bitrate=10220 / ratetol=1.0 / qcomp=0.60 / qpmin=0:0:0 / qpmax=69:69:69 / qpstep=4 / cplxblur=20.0 / qblur=0.5 / vbv_maxrate=50000 / vbv_bufsize=62500 / nal_hrd=none / filler=0 / ip_ratio=1.40 / pb_ratio=1.30 / aq=1:1.10 / aq-sensitivity=10.00 / aq-factor=1.00:1.00:1.00 / aq2=0 / aq3=0 Язык : Немецкий По умолчанию : Да Принудительно : Нет Аудио #1 Идентификатор : 2 Формат : AC-3 Формат/Информация : Audio Coding 3 Коммерческое название : Dolby Digital Идентификатор кодека : A_AC3 Продолжительность : 1 ч. 50 мин. Вид битрейта : Постоянный Битрейт : 448 Кбит/сек Канал(-ы) : 6 каналов Расположение каналов : L R C LFE Ls Rs Частота дискретизации : 48,0 КГц Частота кадров : 31,250 кадров/сек (1536 SPF) Метод сжатия : С потерями Размер потока : 355 Мбайт (4%) Заголовок : DUB | Pride Production Язык : Русский Вид сервиса : Complete Main По умолчанию : Да Принудительно : Да AC3_metadata cmixlev : -3.0 dB surmixlev : -3 dB Аудио #2 Идентификатор : 3 Формат : E-AC-3 Формат/Информация : Enhanced AC-3 Коммерческое название : Dolby Digital Plus Идентификатор кодека : A_EAC3 Продолжительность : 1 ч. 50 мин. Вид битрейта : Постоянный Битрейт : 448 Кбит/сек Канал(-ы) : 6 каналов Расположение каналов : L R C LFE Ls Rs Частота дискретизации : 48,0 КГц Частота кадров : 31,250 кадров/сек (1536 SPF) Метод сжатия : С потерями Размер потока : 355 Мбайт (4%) Заголовок : DUB | Pride Production Язык : Русский Вид сервиса : Complete Main По умолчанию : Нет Принудительно : Нет Аудио #3 Идентификатор : 4 Формат : AC-3 Формат/Информация : Audio Coding 3 Коммерческое название : Dolby Digital Идентификатор кодека : A_AC3 Продолжительность : 1 ч. 50 мин. Вид битрейта : Постоянный Битрейт : 640 Кбит/сек Канал(-ы) : 6 каналов Расположение каналов : L R C LFE Ls Rs Частота дискретизации : 48,0 КГц Частота кадров : 31,250 кадров/сек (1536 SPF) Метод сжатия : С потерями Размер потока : 507 Мбайт (5%) Язык : Французский Вид сервиса : Complete Main По умолчанию : Нет Принудительно : Нет AC3_metadata cmixlev : -3.0 dB surmixlev : -3 dB Текст #1 Идентификатор : 5 Формат : UTF-8 Идентификатор кодека : S_TEXT/UTF8 Идентификатор кодека/Информация : UTF-8 Plain Text Продолжительность : 1 ч. 45 мин. Битрейт : 72 бит/сек Частота кадров : 0,185 кадр/сек Число элементов : 1169 Размер потока : 55,9 КиБ (0%) Заголовок : Full Язык : Русский По умолчанию : Нет Принудительно : Нет Текст #2 Идентификатор : 6 Формат : UTF-8 Идентификатор кодека : S_TEXT/UTF8 Идентификатор кодека/Информация : UTF-8 Plain Text Продолжительность : 1 ч. 0 мин. Битрейт : 2 бит/сек Частота кадров : 0,009 кадр/сек Число элементов : 31 Размер потока : 1,17 КиБ (0%) Заголовок : Forced Язык : Французский По умолчанию : Нет Принудительно : Нет Текст #3 Идентификатор : 7 Формат : UTF-8 Идентификатор кодека : S_TEXT/UTF8 Идентификатор кодека/Информация : UTF-8 Plain Text Продолжительность : 1 ч. 49 мин. Битрейт : 48 бит/сек Частота кадров : 0,178 кадр/сек Число элементов : 1170 Размер потока : 39,3 КиБ (0%) Заголовок : SDH Язык : Французский По умолчанию : Нет Принудительно : Нет Текст #4 Идентификатор : 8 Формат : UTF-8 Идентификатор кодека : S_TEXT/UTF8 Идентификатор кодека/Информация : UTF-8 Plain Text Продолжительность : 1 ч. 49 мин. Битрейт : 35 бит/сек Частота кадров : 0,178 кадр/сек Число элементов : 1164 Размер потока : 28,6 КиБ (0%) Заголовок : Full Язык : Английский По умолчанию : Нет Принудительно : Нет Меню 00:00:00.000 : Chapter 01 00:11:24.500 : Chapter 02 00:22:31.083 : Chapter 03 00:32:11.750 : Chapter 04 00:43:38.958 : Chapter 05 00:55:07.750 : Chapter 06 01:07:17.083 : Chapter 07 01:17:38.332 : Chapter 08 01:27:58.207 : Chapter 09 01:38:51.250 : Chapter 10 01:50:41.832 : Chapter 11
Релиз:

Всего файлов в раздаче: 1 
Sugar.and.Stars.2023.1080p.BluRay.DD.5.1.x264-MegaPeer.mkv9.08 GB

Похожие раздачи по запросу - Кухня
2024-06-08 magnet Елена Дымова - Японская кухня в твоем доме: искусство и простота (2024) FB2 5.35 MB ↑ 0 ↓ 0
2024-05-24 magnet Кухня со звездами / À la belle étoile / Sugar and Stars (2023) BDRip от MegaPeer | D 1.46 GB ↑ 0 ↓ 0
2023-06-23 magnet Кухня со звездами / À la belle étoile / Sugar and Stars (2023) WEB-DL 1080p от селезень | D 3.33 GB ↑ 0 ↓ 0
2023-02-20 magnet Похлебкин В.В. - Русская кухня (2023) PDF 16.89 MB ↑ 1 ↓ 0
2021-07-02 magnet Спирина А.В. - Советская кухня по ГОСТу и не только… Вкус нашего детства! (2019) PDF 61.72 MB ↑ 0 ↓ 0

Кто качает (только для создателя раздачи и модераторов):
ПользовательIP:портОтдалПринялОстатокСидируетТоррент клиентОбновился
1 Аноним 193.154.35.5:35837 16.00 kB 5.84 GB 8.97 GB нет -qB4390- 05:38 2024-06-20

Комментарии


Зарегистрируйтесь чтобы добавить комментарий
Торрент клиент
byTorrent - программа для загрузки торрент-файлов.

Скачать byTorrent.exe (1,5 МБ)

Скачать byTorrent.zip (0,6 МБ)

Поддержи torrent.by
российских рублей
(300 российских рублей это 4$)

Обратная связь rss

End game ©