↑↓torrent.by
Поиск
Логин:  Регистрация
Пароль:

Чикатило / Тень Чикатило [S03] (2024) WEBRip-HEVC 2160p | 4K | SDR

download Скачать торрент-файл   magnet Магнитная ссылка Размер: 34.90 GB Добавлен: 2024-05-24 05:00
Пиры будут получены из сети DHT
Последний сидер был замечен 2024-05-28 09:57
Информация о фильме Название: Чикатило / Тень Чикатило Год выхода: 2024 Жанр: Триллер, детектив, драма Режиссер: Сарик Андреасян, Давид Дадунашвили В ролях: Фёдор Лавров, Николай Козак, Юлия Афанасьева, Дмитрий Власкин, Евгений Шириков, Олег Каменщиков, Дмитрий Нагиев, Мария Ахметзянова, Анна Бегунова, Георгий Мартиросян, Владимир Кисаров, Алексей Гаврилов, Вера Соловьева, Анастасия Груздева, Антон Лунин, Кирилл Светличный, Максим Бойцов, Ольга Зайковская, Дарья Бурлюкало, Игорь Царегородцев, Артём Кретов, Сергей Мелконян, Антон Стреляев, Валерия Богданова, Светлана Степанковская, Юлия Овчаренко, Фарди Самедов, Ольга Воронина, Ульяна Глушкова, Вячеслав Разбегаев, Евгения Ивашова, Юлия Соловьева, Клим Кудашкин, Агата Фадеева, Ксения Назарова, Дарья Лабужская, Ольга Горбунова, Андрей Жилин, Владимир Дубровский, Светлана Потанина, Алена Яблочная, Алексей Ошурков, Дмитрий Ячевский, Елена Одинцова, Егор Щербаков, Андрей Кузнецов, Юлия Романович, Сергей Масленников, Ярослава Славская, Евгений Петров, Армен Филиппов, Лия Латыпова, Наталья Качалкина, Артём Киселёв, Иван Кирюхин, Елена Пономарева, Андрей Шарыпов, Александр Космачев, Александр Василевский, Павел Полубабкин, Олег Грисевич, Владимир Паляница, Евгений Крылов, Вячеслав Щенин, Антон Левин, Андрей Аверьянов, Алексей Баранов, Антон Сёмкин, Алексей Кондрахов, Ирина Аверина, Александр Глебов, Егор Павлов, Павел Конышев, Евгения Шипова, Владимир Башкиров, Дмитрий Радонов, Алексей Савченко, Сергей Копылов, Анастасия Брацюн, Марина Налетова, Ольга Приходько, Наталья Кузнецова, Валерия Дмитриева, Артём Донцов, Дмитрий Репин, Юрий Ляхов, Артем Орлов, Дмитрий Костяев, Анна Савостина, Егор Лысун, Денис Панкратов, Леонид Ардо, Вячеслав Шатненко, Екатерина Сахарова, Янита Сухова, Петр Круговихин, Роман Коваленко, Арина Колахметова, Елена Ивицкая, Наталья Яськова, Алексей Малашкин, Ольга Саханова, Андрей Лавров, Роман Толкарёв, Роман Толкарёв, Владимир Кебин, Андрей Гусев, Полина Ежова, Николай Алипа, Владимир Волжин, Александра Рудь, Андрей Симонькин, Алексей Измайлов О фильме: Из-за присущей ему хитрости, изворотливости и доступа к милицейским архивам и базам данных Попцову удается в течение многих лет избегать наказания, наводя ужас на всю Иркутскую область. Он постепенно превращается в полумистического персонажа, неуловимого демона, от которого нет спасения. И все же оперативники во главе с Ковалевым, пройдя через череду сложных жизненных ситуаций, выйдут на след убийцы, остановив страшный конвейер смерти. Страна: Россия Студия: К.Б.А. / Кинокомпания братьев Андреасян Продолжительность: 8 x ~ 00:50:00 Язык: Русский Премьера в Росcии: 04 апреля 2024 года Цифровой релиз: 04 апреля 2024 года Примечание: Без рекламы Возраст: 18+ Файл Формат: MKV Качество: WEBRip-HEVC 2160p Видео: MPEG-H HEVC SDR, ~ 11.8 Mбит/с, 3840x2160, 8 бит Аудио #01: E-AC3, 6 ch, 384 Кбит/с | C цензурой Аудио #02: E-AC3, 6 ch, 384 Кбит/с | Без цензуры 18+ Субтитры: Отсутствуют Семпл
[+] Скриншоты
[+] MIОбщее Уникальный идентификатор : 317564661768743738725535640842350291229 (0xEEE8BAA8C9187EAA857BACCC75EEE91D) Полное имя : C:UsersAdminDesktopЧикатило.S03E01.2160p.WEB-DL.x265Чикатило.S03E01.2160p.WEB-DL.x265.mkv Формат : Matroska Версия формата : Version 4 Размер файла : 4,92 Гбайт Продолжительность : 55 м. 48 с. Общий поток : 12,6 Мбит/сек Дата кодирования : UTC 2024-04-03 21:24:50 Программа кодирования : mkvmerge v82.0 ('I'm The President') 64-bit Библиотека кодирования : libebml v1.4.5 + libmatroska v1.7.1 Видео Идентификатор : 1 Формат : HEVC Формат/Информация : High Efficiency Video Coding Профиль формата : Main@L5@Main Идентификатор кодека : V_MPEGH/ISO/HEVC Продолжительность : 55 м. 48 с. Битрейт : 11,8 Мбит/сек Ширина : 3 840 пикселей Высота : 2 160 пикселей Соотношение сторон : 16:9 Режим частоты кадров : Постоянный Частота кадров : 25,000 кадров/сек Цветовое пространство : YUV Субдискретизация насыщенности : 4:2:0 Битовая глубина : 8 бит Бит/(Пиксели*Кадры) : 0.057 Размер потока : 4,62 Гбайт (94%) Библиотека кодирования : x265 3.5+1-f0c1022b6: 8bit+10bit+12bit Настройки программы : cpuid=1111039 / frame-threads=3 / wpp / no-pmode / no-pme / no-psnr / no-ssim / log-level=2 / input-csp=1 / input-res=3840x2160 / interlace=0 / total-frames=0 / level-idc=0 / high-tier=1 / uhd-bd=0 / ref=4 / no-allow-non-conformance / repeat-headers / annexb / no-aud / no-hrd / info / hash=0 / no-temporal-layers / no-open-gop / min-keyint=50 / keyint=50 / gop-lookahead=0 / bframes=3 / b-adapt=0 / b-pyramid / bframe-bias=0 / rc-lookahead=25 / lookahead-slices=4 / scenecut=0 / hist-scenecut=0 / radl=0 / no-splice / no-intra-refresh / ctu=64 / min-cu-size=8 / rect / no-amp / max-tu-size=32 / tu-inter-depth=1 / tu-intra-depth=1 / limit-tu=0 / rdoq-level=2 / dynamic-rd=0.00 / no-ssim-rd / signhide / no-tskip / nr-intra=0 / nr-inter=0 / no-constrained-intra / strong-intra-smoothing / max-merge=3 / limit-refs=3 / limit-modes / me=2 / subme=3 / merange=57 / temporal-mvp / no-frame-dup / no-hme / weightp / no-weightb / no-analyze-src-pics / deblock=0:0 / sao / no-sao-non-deblock / rd=3 / selective-sao=4 / no-early-skip / rskip / no-fast-intra / no-tskip-fast / no-cu-lossless / no-b-intra / no-splitrd-skip / rdpenalty=0 / psy-rd=2.00 / psy-rdoq=0.00 / no-rd-refine / no-lossless / cbqpoffs=0 / crqpoffs=0 / rc=abr / bitrate=12000 / qcomp=0.80 / qpstep=4 / stats-write=0 / stats-read=2 / cplxblur=20.0 / qblur=0.5 / vbv-maxrate=18000 / vbv-bufsize=24000 / vbv-init=0.8 / min-vbv-fullness=50.0 / max-vbv-fullness=80.0 / ipratio=1.40 / pbratio=1.30 / aq-mode=2 / aq-strength=1.00 / cutree / zone-count=0 / no-strict-cbr / qg-size=32 / no-rc-grain / qpmax=69 / qpmin=1 / no-const-vbv / sar=0 / overscan=0 / videoformat=5 / range=0 / colorprim=2 / transfer=2 / colormatrix=2 / chromaloc=0 / display-window=0 / cll=0,0 / min-luma=0 / max-luma=255 / log2-max-poc-lsb=8 / vui-timing-info / vui-hrd-info / slices=1 / no-opt-qp-pps / no-opt-ref-list-length-pps / no-multi-pass-opt-rps / scenecut-bias=0.05 / hist-threshold=0.03 / no-opt-cu-delta-qp / no-aq-motion / no-hdr10 / no-hdr10-opt / no-dhdr10-opt / no-idr-recovery-sei / analysis-reuse-level=0 / analysis-save-reuse-level=0 / analysis-load-reuse-level=0 / scale-factor=0 / refine-intra=0 / refine-inter=0 / refine-mv=1 / refine-ctu-distortion=0 / no-limit-sao / ctu-info=0 / no-lowpass-dct / refine-analysis-type=0 / copy-pic=1 / max-ausize-factor=1.0 / no-dynamic-refine / no-single-sei / no-hevc-aq / no-svt / no-field / qp-adaptation-range=1.00 / scenecut-aware-qp=0conformance-window-offsets / right=0 / bottom=0 / decoder-max-rate=0 / no-vbv-live-multi-pass Язык : English Default : Да Forced : Нет Цветовой диапазон : Limited Аудио #1 Идентификатор : 2 Формат : E-AC-3 Формат/Информация : Enhanced AC-3 Коммерческое название : Dolby Digital Plus Идентификатор кодека : A_EAC3 Продолжительность : 55 м. 48 с. Вид битрейта : Постоянный Битрейт : 384 Кбит/сек Каналы : 6 каналов Channel layout : L R C LFE Ls Rs Частота : 48,0 КГц Частота кадров : 31,250 кадров/сек (1536 SPF) Битовая глубина : 32 бит Метод сжатия : С потерями Размер потока : 153 Мбайт (3%) Заголовок : "Русский 5.1" Язык : Russian Service kind : Complete Main Default : Да Forced : Нет Аудио #2 Идентификатор : 3 Формат : E-AC-3 Формат/Информация : Enhanced AC-3 Коммерческое название : Dolby Digital Plus Идентификатор кодека : A_EAC3 Продолжительность : 55 м. 48 с. Вид битрейта : Постоянный Битрейт : 384 Кбит/сек Каналы : 6 каналов Channel layout : L R C LFE Ls Rs Частота : 48,0 КГц Частота кадров : 31,250 кадров/сек (1536 SPF) Битовая глубина : 32 бит Метод сжатия : С потерями Размер потока : 153 Мбайт (3%) Заголовок : "Русский (18+) 5.1" Язык : Russian Service kind : Complete Main Default : Да Forced : Нет

Всего файлов в раздаче: 8 
[NOOBDL]Чикатило.S03E01.2160p.WEB-DL.x265.mkv4.92 GB
[NOOBDL]Чикатило.S03E02.2160p.WEB-DL.x265.mkv3.31 GB
[NOOBDL]Чикатило.S03E03.2160p.WEB-DL.x265.mkv4.43 GB
[NOOBDL]Чикатило.S03E04.2160p.WEB-DL.x265.mkv4.51 GB
[NOOBDL]Чикатило.S03E05.2160p.WEB-DL.x265.mkv4.54 GB
[NOOBDL]Чикатило.S03E06.2160p.WEB-DL.x265.mkv4.78 GB
[NOOBDL]Чикатило.S03E07.2160p.WEB-DL.x265.mkv4.31 GB
[NOOBDL]Чикатило.S03E08.2160p.WEB-DL.x265.mkv4.10 GB

Похожие раздачи по запросу - Чикатило
2024-06-10 magnet Чикатило [S01-03 + Фильм о фильме] (2020-2024) WEB-DLRip от Files-x 17.84 GB ↑ 0 ↓ 0
2024-05-26 magnet Чикатило / Тень Чикатило [S03] (2024) WEBRip 1080p от ExKinoRay 18.04 GB ↑ 0 ↓ 0
2024-05-25 magnet Чикатило / Тень Чикатило [S03] (2024) WEBRip-AVC от Files-х 6.60 GB ↑ 0 ↓ 0
2024-05-25 magnet Чикатило / Тень Чикатило [S03] (2024) WEBRip от Files-х 6.41 GB ↑ 0 ↓ 0
2024-05-25 magnet Чикатило / Тень Чикатило [S03] (2024) WEBRip-AVC от ExKinoRay 6.14 GB ↑ 0 ↓ 0
2024-05-25 magnet Чикатило / Тень Чикатило [S03] (2024) WEBRip 720p от ExKinoRay 12.82 GB ↑ 0 ↓ 0
2024-05-25 magnet Чикатило / Тень Чикатило [S03] (2024) WEBRip от Generalfilm | КПК 1.47 GB ↑ 0 ↓ 0

Кто качает (только для создателя раздачи и модераторов): Локальные пиры отсутствуют

Комментарии


Зарегистрируйтесь чтобы добавить комментарий
Торрент клиент
byTorrent - программа для загрузки торрент-файлов.

Скачать byTorrent.exe (1,5 МБ)

Скачать byTorrent.zip (0,6 МБ)

Поддержи torrent.by
российских рублей
(300 российских рублей это 4$)

Обратная связь rss

End game ©