↑↓torrent.by
Поиск
Логин:  Регистрация
Пароль:

Загляни ему в голову [S01] (2023) WEBRip 1080p от Files-x

download Скачать торрент-файл   magnet Магнитная ссылка Размер: 30.33 GB Добавлен: 2024-05-24 11:00
Пиры будут получены из сети DHT
Последний сидер был замечен 2024-05-26 17:59
Информация о фильме Оригинальное название: Загляни ему в голову Год выхода: 2023 Жанр: Детектив Режиссер: Виталий Воробьёв В ролях: Кирилл Жандаров, Мария Валешная, Дарья Урсуляк, Павел Трубинер, Валентин Смирнитский, Владислав Ветров, Сергей Юшкевич, Павел Попов, Дмитрий Власкин, Алексей Демидов, Евгения Розанова, Михаил Пореченков, Любовь Толкалина, Ян Цапник, Иван Охлобыстин, Александр Устюгов, Валерий Баринов, Михаил Полицеймако, Роман Юнусов, Оксана Базилевич, Яна Крайнова, Глеб Бочков, Ирина Розанова, Галина Сазонова, Михаил Горевой, Илья Акинтьев, Дмитрий Блохин, Александр Носик, Иван Жвакин, Вадим Утенков, Серафима Низовская, Владимир Лукьянчиков, Аристарх Венес О фильме: Валерий Лунин – в прошлом клинический психиатр, а ныне консультант в оперативно-следственной группе по резонансным преступлениям. Раскрывать преступления Лунину помогает уникальный метод, основанный на особенностях его психики. Он может вживаться в роль преступника, буквально влезать ему в голову, и восстанавливать его мотивы. Валерий знает, что его способности – психическая болезнь, которую ему приходится скрывать. Его начальник, полковник Покрасов и журналистка Драпова стремятся разоблачить героя, но Лунина спасает заступничество высокого начальства – генерала Мордвинова. Непростые отношения у Анатолия складываются и с коллегой – штатным психологом-криминалистом Ариной Солодовниковой. Однако с каждым новым делом ее мнение о Лунине меняется: Арина убеждается в профессионализме и необычном таланте Анатолия. Страна: Россия Студия: Кинокомпания Альянс, ВГТРК Продолжительность: 16 х 00:52:04 Перевод: Не требуется Файл Кодек: h.264 Качество: WEBRip 1080p Видео: MPEG-4 AVC, ~ 5000 Кбит/с, 1920x1080, 25 кадр/с Звук: AC3, 2 ch, 192 Кбит/с Субтитры: Нет
[+] Скриншоты
[+] MediaInfo General Unique ID : 202280081867563689657235794049385775589 (0x982DBA07D7F7EB4AA3DCA39A190E41E5) Complete name : C:01.Загляни ему в голову.s01.E01.(2023).WEBRip (1080p).by.Nicodem.Files-x.mkv Format : Matroska File size : 1.87 GiB Duration : 52mn 4s Overall bit rate : 5 143 Kbps Encoded date : UTC 2024-04-03 21:30:14 Writing application : mkvmerge v7.8.0 ('River Man') 32bit built on Apr 3 2015 12:11:22 Writing library : libebml v1.3.1 + libmatroska v1.4.2 Video ID : 1 Format : AVC Format/Info : Advanced Video Codec Format profile : High@L4.0 Format settings, CABAC : Yes Format settings, ReFrames : 2 frames Codec ID : V_MPEG4/ISO/AVC Duration : 52mn 4s Bit rate mode : Variable Bit rate : 4 849 Kbps Maximum bit rate : 8 000 Kbps Width : 1 920 pixels Height : 1 080 pixels Display aspect ratio : 16:9 Frame rate : 25.000 fps Color space : YUV Chroma subsampling : 4:2:0 Bit depth : 8 bits Scan type : Progressive Bits/(Pixel*Frame) : 0.094 Stream size : 1.76 GiB (94%) Audio ID : 2 Format : AC-3 Format/Info : Audio Coding 3 Mode extension : CM (complete main) Codec ID : A_AC3 Duration : 52mn 4s Bit rate mode : Constant Bit rate : 192 Kbps Channel(s) : 2 channels Channel positions : Front: L R Sampling rate : 48.0 KHz Bit depth : 16 bits Compression mode : Lossy Delay relative to video : -40ms Stream size : 71.5 MiB (4%)
Релиз от:

Всего файлов в раздаче: 16 
01.Загляни ему в голову.s01.E01.(2023).WEBRip (1080p).by.Nicodem.Files-x.mkv1.87 GB
02.Загляни ему в голову.s01.E02.(2023).WEBRip (1080p).by.Nicodem.Files-x.mkv1.90 GB
03.Загляни ему в голову.s01.E03.(2023).WEBRip (1080p).by.Nicodem.Files-x.mkv1.89 GB
04.Загляни ему в голову.s01.E04.(2023).WEBRip (1080p).by.Nicodem.Files-x.mkv1.90 GB
05.Загляни ему в голову.s01.E05.(2023).WEBRip (1080p).by.Nicodem.Files-x.mkv1.90 GB
06.Загляни ему в голову.s01.E06.(2023).WEBRip (1080p).by.Nicodem.Files-x.mkv1.91 GB
07.Загляни ему в голову.s01.E07.(2023).WEBRip (1080p).by.Nicodem.Files-x.mkv1.91 GB
08.Загляни ему в голову.s01.E08.(2023).WEBRip (1080p).by.Nicodem.Files-x.mkv1.91 GB
09.Загляни ему в голову.s01.E09.(2023).WEBRip (1080p).by.Nicodem.Files-x.mkv1.90 GB
10.Загляни ему в голову.s01.E10.(2023).WEBRip (1080p).by.Nicodem.Files-x.mkv1.91 GB
Показать все файлы

Похожие раздачи по запросу - Загляни
2024-05-29 magnet Загляни ему в голову [S01] (2023) WEBRip от Generalfilm | КПК 3.12 GB ↑ 0 ↓ 0
2024-05-24 magnet Загляни ему в голову [S01] (2023) WEBRip 720p от Files-х 11.67 GB ↑ 0 ↓ 0
2024-05-24 magnet Загляни ему в голову [01х01-16 из 16] (2023) WEBRip от Files-х 10.43 GB ↑ 0 ↓ 0
2024-05-24 magnet Загляни ему в голову [S01] (2023) WEBRip-AVC от Files-х 10.52 GB ↑ 0 ↓ 0
2024-05-23 magnet Загляни ему в голову / Серии: 1-16 из 16 [2022, детектив, триллер, WEBRip-AVC] от Aleksan55 1К10.53 GB ↑ 0 ↓ 0
2024-05-17 magnet Загляни ему в голову [01х01-14 из 16] (2023) WEBRip 720p от Files-х 10.22 GB ↑ 0 ↓ 0
2024-05-16 magnet Загляни ему в голову [01х01-14 из 16] (2023) WEBRip от Files-х 9.16 GB ↑ 0 ↓ 0

Комментарии


Зарегистрируйтесь чтобы добавить комментарий
Торрент клиент
byTorrent - программа для загрузки торрент-файлов.

Скачать byTorrent.exe (1,5 МБ)

Скачать byTorrent.zip (0,6 МБ)

Поддержи torrent.by
российских рублей
(300 российских рублей это 4$)

Обратная связь rss

End game ©