↑↓torrent.by
Поиск
Логин:  Регистрация
Пароль:

Запретная любовь / Tainted Love (1998) DVDRip | P2

download Скачать торрент-файл   magnet Магнитная ссылка Размер: 1.37 GB Добавлен: 2024-05-24 11:00
Пиры будут получены из сети DHT
Последний сидер был замечен 2024-06-04 10:59
Название: Запретная любовь Оригинальное название: Tainted Love Год выпуска: 1998 Жанр: Детектив, триллер, криминал, эротика Выпущено: США, Everest Pictures Inc., Lynk Entertainment Режиссер: Джаг Мундра В ролях: Блейк Адамс, Гранивиль "Дэнни’" Амес, Тейлор Эшфорд, Ли Энн Беман, Дикси Бек, Джейсон Бурго, Томас Сэмюель ДиРокко, Джордж Феррис, Николь Джан, Азар Хэтчер, Даг Джеффри, Кэролайн Ки Джонсон, Уолтер МакБрайд, Франк Мофлин, Джеймс О’Брайн О фильме: Одинокая женщина-полицейский, обаятельный подозреваемый. Их взаимное влечение таит смертельную опасность. Сара работает в полиции и стремится быть «круче мужиков». Она не носит ни косметики, ни украшений и холодна «как сталь» с коллегами-мужчинами. Но расследование убийства двух фотомоделей меняет всю её жизнь. Сара принимает решение выдать себя за модель и поймать преступника «на живца». Она совершает невероятное перевоплощение и наконец-то может чувствовать себя привлекательной, желанной и женственной. А познакомившись с элегантным, красивым и богатым модельером Майклом, Сара получает предложение поработать для его новой коллекции и открывает в себе способность к горячей страстной и необузданной любви. А между тем улики всё больше указывают на то, что её возлюбленный Майкл и есть главный подозреваемый... Качество: DVDRip Видео: XviD, 1833 Кбит/с, 704x528 Аудио: Русский (AC3, 2 ch, 192 Кбит/с) Продолжительность: 01:36:15 Перевод: Профессиональный двухголосый
[+] MediaInfo Запретная любовь - Tainted Love (by ale_x2008).avi Format : AVI Format/Info : Audio Video Interleave File size : 1.37 GiB Duration : 1h 36mn Overall bit rate : 2 035 Kbps Movie name : Запретная любовь - Tainted Love (by ale_x2008) Director : ale_x2008 Genre : Thriller Writing application : VirtualDubMod 1.5.10.3 (build 2550/release) Original source form/Name : Movie Copyright : Edich2 Comment : 27.12.2015 Video ID : 0 Format : MPEG-4 Visual Format profile : Advanced Simple@L5 Format settings, BVOP : 1 Format settings, QPel : No Format settings, GMC : No warppoints Format settings, Matrix : Default (MPEG) Codec ID : XVID Codec ID/Hint : XviD Duration : 1h 36mn Bit rate : 1 833 Kbps Width : 704 pixels Height : 528 pixels Display aspect ratio : 4:3 Frame rate : 25.000 fps Color space : YUV Chroma subsampling : 4:2:0 Bit depth : 8 bits Scan type : Progressive Compression mode : Lossy Bits/(Pixel*Frame) : 0.197 Stream size : 1.23 GiB (90%) Writing library : XviD 73 Audio ID : 1 Format : AC-3 Format/Info : Audio Coding 3 Mode extension : CM (complete main) Format settings, Endianness : Big Codec ID : 2000 Duration : 1h 36mn Bit rate mode : Constant Bit rate : 192 Kbps Channel(s) : 2 channels Channel positions : Front: L R Sampling rate : 48.0 KHz Bit depth : 16 bits Compression mode : Lossy Delay relative to video : 50ms Stream size : 132 MiB (9%) Alignment : Split accross interleaves Interleave, duration : 40 ms (1.00 video frame) Interleave, preload duration : 500 ms
[+] Скриншоты
[+] Скриншоты 16+
Релиз

Всего файлов в раздаче: 1 
Запретная любовь - Tainted Love (by ale_x2008).avi1.37 GB

Похожие раздачи по запросу - Запретная
2024-02-12 magnet Запретная страсть / L'été dernier / Last Summer (2023) BDRip от MegaPeer | P 1.46 GB ↑ 0 ↓ 0
2023-03-24 magnet Запретная группа (2022) WEB-DLRip 747.29 MB ↑ 0 ↓ 0

Кто качает (только для создателя раздачи и модераторов): Локальные пиры отсутствуют

Комментарии


Зарегистрируйтесь чтобы добавить комментарий
Торрент клиент
byTorrent - программа для загрузки торрент-файлов.

Скачать byTorrent.exe (1,5 МБ)

Скачать byTorrent.zip (0,6 МБ)

Поддержи torrent.by
российских рублей
(300 российских рублей это 4$)

Обратная связь rss

End game ©