↑↓torrent.by
Поиск
Логин:  Регистрация
Пароль:

Чикатило / Тень Чикатило [S03] (2024) WEBRip 720p от ExKinoRay

download Скачать торрент-файл   magnet Магнитная ссылка Размер: 12.82 GB Добавлен: 2024-05-24 11:00
Пиры будут получены из сети DHT
Последний сидер был замечен 2024-06-16 02:09
Информация о фильме Название: Тень Чикатило (Чикатило) Год выхода: 2024 Жанр: Триллер, детектив, драма Режиссер: Сарик Андреасян, Давид Дадунашвили В ролях: Дмитрий Нагиев, Константин Лавроненко, Дмитрий Власкин, Юлия Афанасьева, Олег Каменщиков, Николай Козак, Евгений Шириков, Иван Федотов, Карен Бадалов О фильме: Из-за присущей ему хитрости, изворотливости и доступа к милицейским архивам и базам данных Попцову удается в течение многих лет избегать наказания, наводя ужас на всю Иркутскую область. Он постепенно превращается в полумистического персонажа, неуловимого демона, от которого нет спасения. И все же оперативники во главе с Ковалевым, пройдя через череду сложных жизненных ситуаций, выйдут на след убийцы, остановив страшный конвейер смерти. Страна: Россия Студия: студия К.Б.А. Язык: Русский Файл Формат: MKV Качество: WEBRip 720p Видео: MPEG-4 AVC, ~ 3200 Кбит/с, 1280x720, 25 кадр/с Аудио №1: Русский, AC3, 6 ch, 384 Кбит/с (с цензурой) RUS Аудио №2: Русский, AC3, 6 ch, 384 Кбит/с (без цензуры, 18+) Присутствует ненормативная лексика Аудио №3: Русский, E-AC3, 6 ch, 384 Кбит/с (с цензурой) Аудио №4: Русский, E-AC3, 6 ch, 384 Кбит/с (без цензуры, 18+) Присутствует ненормативная лексика Субтитры: Русские (Enigma) ExKinoRay Продолжительность: 8 x ~ 00:50:00 Реклама: Отсутствует
[+] МИ General Unique ID : 235778244003769679419282741270880517116 (0xB1613CEFF0936D8405C6F96CE238FBFC) Complete name : G:Chikatilo.S03.2024.WEB-DL.720p.ExKinoRayChikatilo.S03.E01.2024.WEB-DL.720p.ExKinoRay.mkv Format : Matroska Format version : Version 4 File size : 1.84 GiB Duration : 55 min 48 s Overall bit rate : 4 731 kb/s Encoded date : UTC 2024-04-04 01:09:50 Writing application : mkvmerge v56.1.0 ('My Friend') 64-bit Writing library : libebml v1.4.2 + libmatroska v1.6.4 Video ID : 1 Format : AVC Format/Info : Advanced Video Codec Format profile : High@L3.1 Format settings : CABAC / 3 Ref Frames Format settings, CABAC : Yes Format settings, Reference frames : 3 frames Codec ID : V_MPEG4/ISO/AVC Duration : 55 min 48 s Bit rate : 3 200 kb/s Width : 1 280 pixels Height : 720 pixels Display aspect ratio : 16:9 Frame rate mode : Constant Frame rate : 25.000 FPS Color space : YUV Chroma subsampling : 4:2:0 Bit depth : 8 bits Scan type : Progressive Bits/(Pixel*Frame) : 0.139 Stream size : 1.24 GiB (67%) Writing library : x264 core 164 r3095 baee400 Encoding settings : cabac=1 / ref=4 / deblock=1:-1:-1 / analyse=0x3:0x133 / me=umh / subme=9 / psy=1 / psy_rd=0.40:1.00 / mixed_ref=1 / me_range=24 / chroma_me=1 / trellis=0 / 8x8dct=1 / cqm=0 / deadzone=21,11 / fast_pskip=1 / chroma_qp_offset=-2 / threads=3 / lookahead_threads=1 / sliced_threads=0 / nr=0 / decimate=1 / interlaced=0 / bluray_compat=0 / stitchable=1 / constrained_intra=0 / bframes=8 / b_pyramid=1 / b_adapt=0 / b_bias=0 / direct=3 / weightb=1 / open_gop=0 / weightp=2 / keyint=75 / keyint_min=38 / scenecut=0 / intra_refresh=0 / rc_lookahead=40 / rc=2pass / mbtree=1 / bitrate=3200 / ratetol=1.0 / qcomp=0.80 / qpmin=1 / qpmax=69 / qpstep=4 / cplxblur=20.0 / qblur=0.5 / vbv_maxrate=4800 / vbv_bufsize=6400 / nal_hrd=none / filler=0 / ip_ratio=1.40 / aq=1:1.00 Language : Russian Default : Yes Forced : No Color range : Limited Color primaries : BT.709 Transfer characteristics : BT.709 Matrix coefficients : BT.709 Audio #1 ID : 2 Format : AC-3 Format/Info : Audio Coding 3 Commercial name : Dolby Digital Codec ID : A_AC3 Duration : 55 min 48 s Bit rate mode : Constant Bit rate : 384 kb/s Channel(s) : 6 channels Channel layout : L R C LFE Ls Rs Sampling rate : 48.0 kHz Frame rate : 31.250 FPS (1536 SPF) Compression mode : Lossy Stream size : 153 MiB (8%) Language : Russian Service kind : Complete Main Default : Yes Forced : No Audio #2 ID : 3 Format : AC-3 Format/Info : Audio Coding 3 Commercial name : Dolby Digital Codec ID : A_AC3 Duration : 55 min 48 s Bit rate mode : Constant Bit rate : 384 kb/s Channel(s) : 6 channels Channel layout : L R C LFE Ls Rs Sampling rate : 48.0 kHz Frame rate : 31.250 FPS (1536 SPF) Compression mode : Lossy Stream size : 153 MiB (8%) Title : 18+ Language : Russian Service kind : Complete Main Default : No Forced : No Audio #3 ID : 4 Format : E-AC-3 Format/Info : Enhanced AC-3 Commercial name : Dolby Digital Plus Codec ID : A_EAC3 Duration : 55 min 48 s Bit rate mode : Constant Bit rate : 384 kb/s Channel(s) : 6 channels Channel layout : L R C LFE Ls Rs Sampling rate : 48.0 kHz Frame rate : 31.250 FPS (1536 SPF) Compression mode : Lossy Stream size : 153 MiB (8%) Language : Russian Service kind : Complete Main Default : No Forced : No Audio #4 ID : 5 Format : E-AC-3 Format/Info : Enhanced AC-3 Commercial name : Dolby Digital Plus Codec ID : A_EAC3 Duration : 55 min 48 s Bit rate mode : Constant Bit rate : 384 kb/s Channel(s) : 6 channels Channel layout : L R C LFE Ls Rs Sampling rate : 48.0 kHz Frame rate : 31.250 FPS (1536 SPF) Compression mode : Lossy Stream size : 153 MiB (8%) Title : 18+ Language : Russian Service kind : Complete Main Default : No Forced : No
[+] Скриншоты
Релиз от:

Всего файлов в раздаче: 8 
Chikatilo.S03.E01.2024.WEB-DL.720p.ExKinoRay.mkv1.84 GB
Chikatilo.S03.E02.2024.WEB-DL.720p.ExKinoRay.mkv1.24 GB
Chikatilo.S03.E03.2024.WEB-DL.720p.ExKinoRay.mkv1.66 GB
Chikatilo.S03.E04.2024.WEB-DL.720p.ExKinoRay.mkv1.69 GB
Chikatilo.S03.E05.2024.WEB-DL.720p.ExKinoRay.mkv1.43 GB
Chikatilo.S03.E06.2024.WEB-DL.720p.ExKinoRay.mkv1.79 GB
Chikatilo.S03.E07.2024.WEB-DL.720p.ExKinoRay.mkv1.62 GB
Chikatilo.S03.E08.2024.WEB-DL.720p.ExKinoRay.mkv1.54 GB

Похожие раздачи по запросу - Чикатило
2024-06-10 magnet Чикатило [S01-03 + Фильм о фильме] (2020-2024) WEB-DLRip от Files-x 17.84 GB ↑ 0 ↓ 0
2024-05-26 magnet Чикатило / Тень Чикатило [S03] (2024) WEBRip 1080p от ExKinoRay 18.04 GB ↑ 0 ↓ 0
2024-05-25 magnet Чикатило / Тень Чикатило [S03] (2024) WEBRip-AVC от Files-х 6.60 GB ↑ 0 ↓ 0
2024-05-25 magnet Чикатило / Тень Чикатило [S03] (2024) WEBRip от Files-х 6.41 GB ↑ 0 ↓ 0
2024-05-25 magnet Чикатило / Тень Чикатило [S03] (2024) WEBRip-AVC от ExKinoRay 6.14 GB ↑ 0 ↓ 0
2024-05-25 magnet Чикатило / Тень Чикатило [S03] (2024) WEBRip 720p от ExKinoRay 12.82 GB ↑ 0 ↓ 0
2024-05-25 magnet Чикатило / Тень Чикатило [S03] (2024) WEBRip от Generalfilm | КПК 1.47 GB ↑ 0 ↓ 0

Комментарии


Зарегистрируйтесь чтобы добавить комментарий
Торрент клиент
byTorrent - программа для загрузки торрент-файлов.

Скачать byTorrent.exe (1,5 МБ)

Скачать byTorrent.zip (0,6 МБ)

Поддержи torrent.by
российских рублей
(300 российских рублей это 4$)

Обратная связь rss

End game ©