↑↓torrent.by
Поиск
Логин:  Регистрация
Пароль:

Выкуп / Bigongsikjakjeon / Ransomed (2023) HDRip от ExKinoRay | D

download Скачать торрент-файл   magnet Магнитная ссылка Размер: 796.52 MB Добавлен: 2024-05-24 17:00
Пиры будут получены из сети DHT
Последний сидер был замечен 2024-05-31 09:13
Информация о фильме Название: Выкуп Оригинальное название: Bigongsikjakjeon / Ransomed Год выхода: 2023 Жанр: боевик Режиссер: Ким Сон-хун В ролях: Ха Джон-у, Чу Джи-хун, Ю Сын-мок, Ким Ын-су, Лим Хён-гук, Ким Джон-су, Пак Хёк-квон, Берн Горман, Со Ён-сам, Чхве Джон-у О фильме: Конец 1980-х. Сотрудник дипломатической службы внезапно получает зашифрованное сообщение от своего похищенного коллеги, которого долгое время считали погибшим. Он решает отправиться на поиски своего сослуживца и спасти его любой ценой, вступив в смертельную схватку с отъявленными преступниками. Страна: Корея Южная Студия: B&C CONTENT, Showbox Продолжительность: 02:12:21 Перевод: Профессиональный дублированный - Видео Продакшн Файл Кодек: XviD Качество: HDRip Видео: 688x288 (2.39:1), 24 fps, XviD build 67 ~701 kbps avg, 0.15 bit/pixel Звук: 48 kHz, MP3, 2 ch, 128 kbps avg Субтитры: Отсутствуют
[+] MediaInfoGeneral Complete name : D:Ransomed.2023.HDRip by.ExKinoRay.avi Format : AVI Format/Info : Audio Video Interleave Format settings : BitmapInfoHeader / WaveFormatEx File size : 797 MiB Duration : 2 h 12 min Overall bit rate : 841 kb/s Frame rate : 24.000 FPS Movie name : Ransomed (2023).HDRip by.ExKinoRay Writing application : Lavf58.29.100 Video ID : 0 Format : MPEG-4 Visual Format profile : Advanced Simple@L5 Format settings : BVOP1 / Custom Matrix Format settings, BVOP : 1 Format settings, QPel : No Format settings, GMC : No warppoints Format settings, Matrix : Custom Codec ID : XVID Codec ID/Hint : XviD Duration : 2 h 12 min Bit rate : 701 kb/s Width : 688 pixels Height : 288 pixels Display aspect ratio : 2.40:1 Frame rate : 24.000 FPS Color space : YUV Chroma subsampling : 4:2:0 Bit depth : 8 bits Scan type : Progressive Compression mode : Lossy Bits/(Pixel*Frame) : 0.147 Stream size : 663 MiB (83%) Writing library : XviD 67 Audio ID : 1 Format : MPEG Audio Format version : Version 1 Format profile : Layer 3 Format settings : Joint stereo Codec ID : 55 Codec ID/Hint : MP3 Duration : 2 h 12 min Bit rate mode : Constant Bit rate : 128 kb/s Channel(s) : 2 channels Sampling rate : 48.0 kHz Compression mode : Lossy Stream size : 121 MiB (15%) Alignment : Aligned on interleaves Interleave, duration : 24 ms (0.58 video frame) Writing library : LAMEUÑ°Áúšj¢i‰Ã
[+] Скриншоты
Релиз от: Рип изготовил:

Всего файлов в раздаче: 1 
Ransomed.2023.HDRip by.ExKinoRay.avi796.52 MB

Похожие раздачи по запросу - Выкуп
Вчера magnet Выкуп / Bigongsikjakjeon / Ransomed (2023) BDRip 1080p от от ExKinoRay | D 14.50 GB ↑ 0 ↓ 3
2024-05-23 magnet Выкуп / Bigongsikjakjeon / Ransomed (2023) BDRip 720p от DoMiNo & селезень | D | Видео Продакшн 5.14 GB ↑ 0 ↓ 4
2024-05-23 magnet Выкуп / Bigongsikjakjeon / Ransomed (2023) BDRip от MegaPeer | D 2.18 GB ↑ 0 ↓ 5
2024-05-23 magnet Выкуп / Bigongsikjakjeon / Ransomed (2023) BDRip от MegaPeer | D 1.46 GB ↑ 0 ↓ 2
2024-05-23 magnet Выкуп / Bigongsikjakjeon / Ransomed (2023) BDRip 1080p от MegaPeer | D 9.98 GB ↑ 1 ↓ 1

Кто качает (только для создателя раздачи и модераторов): Локальные пиры отсутствуют

Комментарии


Зарегистрируйтесь чтобы добавить комментарий
Торрент клиент
byTorrent - программа для загрузки торрент-файлов.

Скачать byTorrent.exe (1,5 МБ)

Скачать byTorrent.zip (0,6 МБ)

Поддержи torrent.by
российских рублей
(300 российских рублей это 4$)

Обратная связь rss

End game ©