↑↓torrent.by
Поиск
Логин:  Регистрация
Пароль:

Ночной сторож: Демоны передаются по наследству / Nattevagten - Dæmoner går i arv / Nightwatch: Demons Are Forever (2023) BDRip-AVC от DoMiNo & селезень | P, P2 | TVShows, ViruseProject

download Скачать торрент-файл   magnet Магнитная ссылка Размер: 1.78 GB Добавлен: 2024-05-24 17:00
Пиры будут получены из сети DHT
Последний сидер был замечен сегодня в 19:52
Информация о фильме Название: Ночной сторож: Демоны передаются по наследству Оригинальное название: Nattevagten - Dæmoner går i arv Год выхода: 2023 Жанр: ужасы, триллер, детектив Режиссер: Уле Борнедаль В ролях: Фанни Борнедаль, Николай Костер-Вальдау, Алекс Хег Андерсен, Сара Виктория Бьеррегор Кристенсен, Ким Бодния, Вибеке Хаструп, Pelle Emil Hebsgaard, Casper Kjær Jensen, Александр Беранг Кешткар, Bodil Lassen и т.д. О фильме: Эмма, студентка медфака, устраивается на работу ночным сторожем в Институт судебно-медицинской экспертизы в то самое место, где серийный убийца-психопат комиссар Вёрмер 30 лет назад пытался убить ее родителей. С тех пор их преследовала память о той ночи, и Эмма тоже унаследовала травму своих родителей. Молодая девушка решает выяснить, что на самом деле тогда произошло. Встреча с преступником запускает цепь судьбоносных событий. Начинается кровавая месть всем тем, кто в свое время решил судьбу Вермера. "Ночной сторож: Демоны передаются по наследству" продолжение фильма "Ночной сторож" 1994 года. Страна: Дания Продолжительность: 01:57:44 Перевод 1: Профессиональный (многоголосый, закадровый) | TVShows Перевод 2: Профессиональный (двухголосый, закадровый) | ViruseProject 18+ Субтитры: Английские, датские, финские, норвежские, шведские Файл Формат: Matroska Качество: BDRip-AVC Видео: 1024x428 at 23.976 fps, x264@L4.1, ~1330 kbps Аудио 1: AC3, 6 ch, ~384 kbps - | Русский | | TVShows Аудио 2: AC3, 6 ch, ~448 kbps - | Русский | | ViruseProject Формат субтитров: softsub (SRT) ***Рип от: -=DoMiNo=-
[+] M/Ix264 : frame I:1387 Avg QP:14.45 size: 43147 x264 : frame P:32356 Avg QP:16.58 size: 17179 x264 : frame B:135783 Avg QP:18.43 size: 4102 General Unique ID : 141227177665531757749912402515843857702 (0x6A3F5D7370CDD4105201EABCF2BFBD26) Complete name : I:Nightwatch.Demons.Are.Forever.2023.MVO.BDRip.x264.seleZen.mkv Format : Matroska Format version : Version 4 File size : 1.78 GiB Duration : 1 h 57 min Overall bit rate : 2 162 kb/s Frame rate : 24.000 FPS Movie name : Nightwatch.Demons.Are.Forever.2023.MVO.BDRip.x264.seleZen Encoded date : 2024-05-24 06:33:32 UTC Writing application : mkvmerge v84.0 ('Sleeper') 64-bit Writing library : libebml v1.4.5 + libmatroska v1.7.1 Cover : Yes Attachments : cover.jpg / small_cover.jpg Video ID : 1 Format : AVC Format/Info : Advanced Video Codec Format profile : High@L4.1 Format settings : CABAC / 14 Ref Frames Format settings, CABAC : Yes Format settings, Reference : 14 frames Codec ID : V_MPEG4/ISO/AVC Duration : 1 h 57 min Bit rate : 1 330 kb/s Width : 1 024 pixels Height : 428 pixels Display aspect ratio : 2.39:1 Frame rate mode : Constant Frame rate : 24.000 FPS Color space : YUV Chroma subsampling : 4:2:0 Bit depth : 8 bits Scan type : Progressive Bits/(Pixel*Frame) : 0.126 Stream size : 1.09 GiB (61%) Title : -=DoMiNo=- Writing library : x264 core 164 r3179+58M 2d8d988 t_mod_New Encoding settings : cabac=1 / ref=14 / deblock=1:-2:-2 / analyse=0x3:0x133 / me=umh / subme=10 / psy=1 / fade_compensate=0.00 / psy_rd=1.05:0.03 / mixed_ref=1 / me_range=32 / chroma_me=1 / trellis=2 / 8x8dct=1 / cqm=0 / deadzone=21,11 / fast_pskip=0 / chroma_qp_offset=-3 / threads=13 / lookahead_threads=3 / sliced_threads=0 / nr=0 / decimate=0 / interlaced=0 / bluray_compat=0 / constrained_intra=0 / fgo=0 / bframes=12 / b_pyramid=2 / b_adapt=2 / b_bias=0 / direct=3 / weightb=1 / open_gop=0 / weightp=2 / keyint=240 / keyint_min=24 / scenecut=40 / intra_refresh=0 / rc_lookahead=60 / rc=2pass / mbtree=0 / bitrate=1330 / ratetol=1.0 / qcomp=0.65 / qpmin=0:0:0 / qpmax=69:69:69 / qpstep=4 / cplxblur=20.0 / qblur=0.5 / vbv_maxrate=50000 / vbv_bufsize=62500 / nal_hrd=none / filler=0 / ip_ratio=1.20 / pb_ratio=1.30 / aq=3:0.90 / aq-sensitivity=10.00 / aq-factor=1.00:1.00:1.00:1.00 / aq2=0 / aq3=0 Language : English Default : Yes Forced : No Color range : Limited Color primaries : BT.709 Transfer characteristics : BT.709 Matrix coefficients : BT.709 Audio #1 ID : 2 Format : AC-3 Format/Info : Audio Coding 3 Commercial name : Dolby Digital Codec ID : A_AC3 Duration : 1 h 57 min Bit rate mode : Constant Bit rate : 384 kb/s Channel(s) : 6 channels Channel layout : L R C LFE Ls Rs Sampling rate : 48.0 kHz Frame rate : 31.250 FPS (1536 SPF) Compression mode : Lossy Stream size : 323 MiB (18%) Title : MVO -TVShows Language : Russian Service kind : Complete Main Default : Yes Forced : No Dialog Normalization : -31 dB cmixlev : -4.5 dB surmixlev : -6 dB dialnorm_Average : -31 dB dialnorm_Minimum : -31 dB dialnorm_Maximum : -31 dB Audio #2 ID : 3 Format : AC-3 Format/Info : Audio Coding 3 Commercial name : Dolby Digital Codec ID : A_AC3 Duration : 1 h 57 min Bit rate mode : Constant Bit rate : 448 kb/s Channel(s) : 6 channels Channel layout : L R C LFE Ls Rs Sampling rate : 48.0 kHz Frame rate : 31.250 FPS (1536 SPF) Compression mode : Lossy Stream size : 377 MiB (21%) Title : DVO -ViruseProject Language : Russian Service kind : Complete Main Default : No Forced : No Dialog Normalization : -31 dB compr : -0.28 dB cmixlev : -3.0 dB surmixlev : -3 dB mixlevel : 284 dB roomtyp : 3 ltrtcmixlev : -3.0 dB ltrtsurmixlev : -3.0 dB lorocmixlev : -3.0 dB lorosurmixlev : -3.0 dB dialnorm_Average : -31 dB dialnorm_Minimum : -31 dB dialnorm_Maximum : -31 dB Text #1 ID : 4 Format : UTF-8 Codec ID : S_TEXT/UTF8 Codec ID/Info : UTF-8 Plain Text Duration : 1 h 52 min Bit rate : 41 b/s Frame rate : 0.166 FPS Count of elements : 1127 Stream size : 34.5 KiB (0%) Language : English Default : No Forced : No Text #2 ID : 5 Format : UTF-8 Codec ID : S_TEXT/UTF8 Codec ID/Info : UTF-8 Plain Text Duration : 1 h 48 min Bit rate : 0 b/s Frame rate : 0.001 FPS Count of elements : 4 Stream size : 134 Bytes (0%) Title : Forced Language : Danish Default : No Forced : No Text #3 ID : 6 Format : UTF-8 Codec ID : S_TEXT/UTF8 Codec ID/Info : UTF-8 Plain Text Duration : 1 h 57 min Bit rate : 45 b/s Frame rate : 0.149 FPS Count of elements : 1049 Stream size : 39.2 KiB (0%) Language : Danish Default : No Forced : No Text #4 ID : 7 Format : UTF-8 Codec ID : S_TEXT/UTF8 Codec ID/Info : UTF-8 Plain Text Duration : 1 h 57 min Bit rate : 43 b/s Frame rate : 0.143 FPS Count of elements : 1010 Stream size : 37.1 KiB (0%) Language : Finnish Default : No Forced : No Text #5 ID : 8 Format : UTF-8 Codec ID : S_TEXT/UTF8 Codec ID/Info : UTF-8 Plain Text Duration : 1 h 57 min Bit rate : 43 b/s Frame rate : 0.143 FPS Count of elements : 1010 Stream size : 37.0 KiB (0%) Language : Norwegian Default : No Forced : No Text #6 ID : 9 Format : UTF-8 Codec ID : S_TEXT/UTF8 Codec ID/Info : UTF-8 Plain Text Duration : 1 h 57 min Bit rate : 44 b/s Frame rate : 0.143 FPS Count of elements : 1010 Stream size : 38.6 KiB (0%) Language : Swedish Default : No Forced : No Menu 00:00:00.000 : en:Chapter 01 00:15:47.666 : en:Chapter 02 00:30:31.833 : en:Chapter 03 00:50:41.791 : en:Chapter 04 01:03:20.000 : en:Chapter 05 01:20:27.916 : en:Chapter 06 01:34:22.583 : en:Chapter 07 01:53:57.833 : en:Chapter 08 01:57:43.583 : en:Chapter 09
Релиз: Присоединяйся к: Кликай на баннеры.

Всего файлов в раздаче: 1 
Nightwatch.Demons.Are.Forever.2023.MVO.BDRip.x264.seleZen.mkv1.78 GB

Похожие раздачи по запросу - Ночной
2024-05-24 magnet Ночной сторож: Демоны передаются по наследству / Nattevagten - Dæmoner går i arv / Nightwatch: Demons Are Forever (2023) BDRip 720p от DoMiNo & селезень | P, P2 | TVShows, ViruseProject 4.39 GB ↑ 0 ↓ 0
2024-05-24 magnet Ночной сторож: Демоны передаются по наследству / Nattevagten - Dæmoner går i arv / Nightwatch: Demons Are Forever (2023) BDRemux 1080p | P, P2 18.64 GB ↑ 0 ↓ 0
2024-05-24 magnet Ночной сторож: Демоны передаются по наследству / Nattevagten - Dæmoner går i arv / Nightwatch: Demons Are Forever (2023) HDRip-AVC от New-Team | P, P2 2.36 GB ↑ 0 ↓ 0
2024-05-13 magnet Ночной рейс / Красный глаз / Red Eye [S01] (2024) WEB-DL 720p | RuDub 8.26 GB ↑ 0 ↓ 2
2024-05-10 magnet Ночной рейс / Красный глаз / Red Eye [01x01-04 из 06] (2024) WEB-DL 720p | RuDub 5.50 GB ↑ 0 ↓ 0
2024-03-16 magnet Ночной сторож: Демоны передаются по наследству / Nattevagten - Dæmoner går i arv / Nightwatch: Demons Are Forever (2023) BDRip 1080p от селезень | P2 | ViruseProject 9.27 GB ↑ 0 ↓ 0
2024-03-15 magnet Ночной рейд / Topakk (2023) WEB-DLRip | D 747.61 MB ↑ 0 ↓ 0

Кто качает (только для создателя раздачи и модераторов): Локальные пиры отсутствуют

Комментарии


Зарегистрируйтесь чтобы добавить комментарий
Торрент клиент
byTorrent - программа для загрузки торрент-файлов.

Скачать byTorrent.exe (1,5 МБ)

Скачать byTorrent.zip (0,6 МБ)

Поддержи torrent.by
российских рублей
(300 российских рублей это 4$)

Обратная связь rss

End game ©