↑↓torrent.by
Поиск
Логин:  Регистрация
Пароль:

Годзилла и Конг: Новая империя / Godzilla x Kong: The New Empire (2024) WEB-DL 1080p | D | Red Head Sound

download Скачать торрент-файл   magnet Магнитная ссылка Размер: 7.96 GB Раздают: 1 Качают: 1 Добавлен: 2024-05-25 05:00
Пиры будут получены из сети DHT
Последний сидер был замечен сегодня в 11:38
Информация о фильме Название: Годзилла и Конг: Новая империя Оригинальное название: Godzilla x Kong: The New Empire Год выпуска: 2024 Жанр: фантастика, боевик Выпущено: США, Австралия, Legendary Entertainment, Screen Queensland, Warner Bros. Режиссер: Адам Вингард В ролях: Ребекка Холл, Брайан Тайри Генри, Дэн Стивенс, Кэйли Хоттл, Алекс Фернс, Фала Чен, Рэйчел Хаус, Рональд Смик, Чантелл Джемисон, Грег Хаттон О фильме: Два древних титана, Годзилла и Конг, сражаются в эпической битве, пока люди разгадывают их происхождение и связь с тайнами Острова черепа. Продолжительность: 01:55:04 Перевод: Дублированный (неофициальный) | Red Head Sound Файл Формат: MKV Качество: WEB-DL 1080p Видео: AVC, 1920x800 (2.4:1), 23.976 fps, ~9294 kb/s Аудио 1: AC-3, 48 kHz, 2 ch, 192 kbps | Red Head Sound Аудио 2: E-AC-3 ATMOS, 48 kHz, 6 ch, 448 kbps | Original Субтитры: Русские (Forced, Full), Английские (Forced, Full, SDH) Реклама: Отсутствует
[+] MediaInfoGeneral Unique ID : 336648686937599421771415526608911280698 (0xFD442DBEB477EFA41340E3B06D2D2A3A) Complete name : Godzilla.x.Kong.The.New.Empire.2024.1080p.AMZN.WEB-DL.H.264-FLUX-RGzsRutrаcker.mkv Format : Matroska Format version : Version 4 File size : 7.96 GiB Duration : 1 h 55 min Overall bit rate : 9 902 kb/s Frame rate : 23.976 FPS Encoded date : 2024-05-24 14:19:54 UTC Writing application : mkvmerge v82.0 ('I'm The President') 64-bit Writing library : libebml v1.4.5 + libmatroska v1.7.1 Video ID : 1 Format : AVC Format/Info : Advanced Video Codec Format profile : High@L4 Format settings : CABAC / 4 Ref Frames Format settings, CABAC : Yes Format settings, Reference frames : 4 frames Codec ID : V_MPEG4/ISO/AVC Duration : 1 h 54 min Bit rate mode : Constant Bit rate : 9 294 kb/s Nominal bit rate : 10 000 kb/s Width : 1 920 pixels Height : 800 pixels Display aspect ratio : 2.40:1 Frame rate mode : Constant Frame rate : 23.976 (24000/1001) FPS Color space : YUV Chroma subsampling : 4:2:0 Bit depth : 8 bits Scan type : Progressive Bits/(Pixel*Frame) : 0.252 Stream size : 7.44 GiB (94%) Language : English (US) Default : Yes Forced : No Color range : Limited Color primaries : BT.709 Transfer characteristics : BT.709 Matrix coefficients : BT.709 Audio #1 ID : 2 Format : AC-3 Format/Info : Audio Coding 3 Commercial name : Dolby Digital Codec ID : A_AC3 Duration : 1 h 55 min Bit rate mode : Constant Bit rate : 192 kb/s Channel(s) : 2 channels Channel layout : L R Sampling rate : 48.0 kHz Frame rate : 31.250 FPS (1536 SPF) Compression mode : Lossy Stream size : 158 MiB (2%) Title : Dub Language : Russian Service kind : Complete Main Default : Yes Forced : No Audio #2 ID : 3 Format : E-AC-3 JOC Format/Info : Enhanced AC-3 with Joint Object Coding Commercial name : Dolby Digital Plus with Dolby Atmos Codec ID : A_EAC3 Duration : 1 h 55 min Bit rate mode : Constant Bit rate : 448 kb/s Channel(s) : 6 channels Channel layout : L R C LFE Ls Rs Sampling rate : 48.0 kHz Frame rate : 31.250 FPS (1536 SPF) Compression mode : Lossy Stream size : 369 MiB (5%) Title : Original Language : English Service kind : Complete Main Default : No Forced : No Complexity index : 16 Number of dynamic objects : 15 Bed channel count : 1 channel Bed channel configuration : LFE Text #1 ID : 4 Format : UTF-8 Codec ID : S_TEXT/UTF8 Codec ID/Info : UTF-8 Plain Text Duration : 1 h 44 min Bit rate : 4 b/s Frame rate : 0.014 FPS Count of elements : 89 Stream size : 3.82 KiB (0%) Title : Forced Language : Russian Default : Yes Forced : No Text #2 ID : 5 Format : UTF-8 Codec ID : S_TEXT/UTF8 Codec ID/Info : UTF-8 Plain Text Duration : 1 h 53 min Bit rate : 51 b/s Frame rate : 0.121 FPS Count of elements : 825 Stream size : 42.6 KiB (0%) Title : Full Language : Russian Default : No Forced : No Text #3 ID : 6 Format : UTF-8 Codec ID : S_TEXT/UTF8 Codec ID/Info : UTF-8 Plain Text Duration : 1 h 33 min Bit rate : 1 b/s Frame rate : 0.010 FPS Count of elements : 56 Stream size : 1.28 KiB (0%) Title : Forced Language : English (US) Default : No Forced : No Text #4 ID : 7 Format : UTF-8 Codec ID : S_TEXT/UTF8 Codec ID/Info : UTF-8 Plain Text Duration : 1 h 45 min Bit rate : 38 b/s Frame rate : 0.151 FPS Count of elements : 956 Stream size : 30.1 KiB (0%) Title : Full Language : English (US) Default : No Forced : No Text #5 ID : 8 Format : UTF-8 Codec ID : S_TEXT/UTF8 Codec ID/Info : UTF-8 Plain Text Duration : 1 h 54 min Bit rate : 53 b/s Frame rate : 0.241 FPS Count of elements : 1654 Stream size : 44.4 KiB (0%) Title : SDH Language : English (US) Default : No Forced : No Menu 00:00:00.000 : en:Scene 1 01:54:33.000 : en:Outro
[+] Скриншоты

Всего файлов в раздаче: 1 
Godzilla.x.Kong.The.New.Empire.2024.1080p.AMZN.WEB-DL.H.264-FLUX-RGzsRutracker.mkv7.96 GB

Похожие раздачи по запросу - Годзилла
2024-06-13 magnet Годзилла: Минус один / Gojira -1.0 / Godzilla: Minus One (2023) BDRip-AVC от DoMiNo & селезень | D | Red Head Sound 746.14 MB ↑ 0 ↓ 0
2024-06-13 magnet Годзилла: Минус один / Gojira -1.0 / Godzilla: Minus One (2023) BDRip от MegaPeer | D | Red Head Sound 2.18 GB ↑ 0 ↓ 1
2024-06-13 magnet Годзилла: Минус один / Gojira -1.0 / Godzilla: Minus One (2023) BDRip 1080p от Scarabey | D | Red Head Sound 9.73 GB ↑ 2 ↓ 5
2024-06-13 magnet Годзилла: Минус один / Gojira -1.0 / Godzilla: Minus One (2023) BDRip-AVC от DoMiNo & селезень | D | Red Head Sound 1.79 GB ↑ 0 ↓ 0
2024-06-13 magnet Годзилла: Минус один / Gojira -1.0 / Godzilla: Minus One (2023) BDRip 720p от DoMiNo & селезень | D | Red Head Sound 4.46 GB ↑ 0 ↓ 1
2024-06-13 magnet Годзилла: Минус один / Gojira -1.0 / Godzilla: Minus One (2023) BDRip от MegaPeer | D | Red Head Sound 1.46 GB ↑ 0 ↓ 0
2024-06-11 magnet Годзилла и Конг: Новая империя / Godzilla x Kong: The New Empire (2024) HDRip-AVC | КПК | D 600.37 MB ↑ 1 ↓ 0

Кто качает (только для создателя раздачи и модераторов):
ПользовательIP:портОтдалПринялОстатокСидируетТоррент клиентОбновился
1 Аноним 37.215.14.133:34185 133.64 MB 0.00 B 0.00 B да -UT360W- 11:38 2024-06-16
2 Аноним 89.109.44.125:37375 11.67 MB 4.01 GB 7.89 GB нет -qB4390- 11:39 2024-06-16

Комментарии


Зарегистрируйтесь чтобы добавить комментарий
Торрент клиент
byTorrent - программа для загрузки торрент-файлов.

Скачать byTorrent.exe (1,5 МБ)

Скачать byTorrent.zip (0,6 МБ)

Поддержи torrent.by
российских рублей
(300 российских рублей это 4$)

Обратная связь rss

End game ©