↑↓torrent.by
Поиск
Логин:  Регистрация
Пароль:

Пацан против всех / Boy Kills World (2023) WEB-DLRip 720p от DoMiNo & селезень | P | HDRezka Studio

download Скачать торрент-файл   magnet Магнитная ссылка Размер: 2.77 GB Раздают: 0 Качают: 1 Добавлен: 2024-05-25 18:20
Пиры будут получены из сети DHT
Последний сидер был замечен сегодня в 20:17
Информация о фильме Название: Пацан против всех Оригинальное название: Boy Kills World Год выпуска: 2023 Жанр: боевик, комедия, фантастика Режиссер: Мориц Мор / Moritz Mohr В ролях: Билл Скарсгард, Джессика Рот, Мишель Докери, Бретт Гельман, Яян Рухьян, Куинн Коуплэнд, Эндрю Кодзи, Айзейя Мустафа, Шарлто Копли, Фамке Янссен О фильме: Будущее. Во время отбора жертв для ежегодно проводимого тв-шоу мать и сестру одного мальчика убивает глава правящей тиранической династии Хильда Ван Дер Кой, а сам он становится глухонемым. Парень сбегает в джунгли с одним желанием — отомстить. Здесь он встречает отшельника Шамана, который начинает обучать его боевым искусствам. Проходят годы, и теперь повзрослевший мститель готов действовать. Выпущено: Германия, ЮАР, США / Nthibah Pictures, Raimi Productions, Ventaro Film Продолжительность: 01:50:42 Перевод: Профессиональный (многоголосый, закадровый) | HDRezka Studio Субтитры: Русские (Forced, Full -stirlooo 18+), английские Файл Формат: Matroska Качество: WEB-DLRip 720p | Исх.Boy.Kills.World.2023.2160p.AMZN.WEB-DL.DDP5.1.H.265-BYNDR Видео: 1280x534 at 23.976 fps, x264@L4.1, ~2999 kbps Аудио 1: AC3, 2 ch, ~192 kbps - | Русский | Аудио 2: AC3, 6 ch, ~384 kbps - | Английский | Формат субтитров: softsub (SRT) ***Рип от: -=DoMiNo=- *** Дебандинг, зерно.
[+] M/IGeneral Unique ID : 22250275709500526372653156684301582403 (0x10BD3F4A33AA65DA294692BD9C87C043) Complete name : S:Boy.Kills.World.2023.MVO.WEB-DLRip.720p.x264.seleZen.mkv Format : Matroska Format version : Version 4 File size : 2.77 GiB Duration : 1 h 50 min Overall bit rate : 3 578 kb/s Frame rate : 23.976 FPS Movie name : Boy.Kills.World.2023.MVO.WEB-DLRip.720p.x264.seleZen Encoded date : 2024-05-25 13:48:05 UTC Writing application : mkvmerge v84.0 ('Sleeper') 64-bit Writing library : libebml v1.4.5 + libmatroska v1.7.1 Cover : Yes Attachments : cover.jpg / small_cover.jpg Video ID : 1 Format : AVC Format/Info : Advanced Video Codec Format profile : High@L4.1 Format settings : CABAC / 5 Ref Frames Format settings, CABAC : Yes Format settings, Reference : 5 frames Codec ID : V_MPEG4/ISO/AVC Duration : 1 h 50 min Bit rate : 2 999 kb/s Width : 1 280 pixels Height : 534 pixels Display aspect ratio : 2.40:1 Frame rate mode : Constant Frame rate : 23.976 (24000/1001) FPS Color space : YUV Chroma subsampling : 4:2:0 Bit depth : 8 bits Scan type : Progressive Bits/(Pixel*Frame) : 0.183 Stream size : 2.32 GiB (84%) Title : -=DoMiNo=- Writing library : x264 core 164 r3191 -DoMiNo Encoding settings : cabac=1 / ref=5 / deblock=1:-1:-1 / analyse=0x3:0x133 / me=umh / subme=10 / psy=1 / psy_rd=1.00:0.00 / mixed_ref=1 / me_range=32 / chroma_me=1 / trellis=2 / 8x8dct=1 / cqm=0 / deadzone=21,11 / fast_pskip=0 / chroma_qp_offset=-2 / threads=17 / lookahead_threads=4 / sliced_threads=0 / nr=0 / decimate=1 / interlaced=0 / bluray_compat=0 / constrained_intra=0 / bframes=12 / b_pyramid=2 / b_adapt=2 / b_bias=0 / direct=3 / weightb=1 / open_gop=0 / weightp=2 / keyint=240 / keyint_min=23 / scenecut=40 / intra_refresh=0 / rc_lookahead=60 / rc=crf / mbtree=0 / crf=17.5 / qcomp=0.60 / qpmin=0 / qpmax=69 / qpstep=4 / vbv_maxrate=50000 / vbv_bufsize=62500 / crf_max=0.0 / nal_hrd=none / filler=0 / ip_ratio=1.40 / pb_ratio=1.30 / aq=2:0.90 Language : English Default : Yes Forced : No Audio #1 ID : 2 Format : AC-3 Format/Info : Audio Coding 3 Commercial name : Dolby Digital Codec ID : A_AC3 Duration : 1 h 50 min Bit rate mode : Constant Bit rate : 192 kb/s Channel(s) : 2 channels Channel layout : L R Sampling rate : 48.0 kHz Frame rate : 31.250 FPS (1536 SPF) Compression mode : Lossy Stream size : 152 MiB (5%) Title : MVO - HDRezka Studio Language : Russian Service kind : Complete Main Default : Yes Forced : No Dialog Normalization : -31 dB dialnorm_Average : -31 dB dialnorm_Minimum : -31 dB dialnorm_Maximum : -31 dB Audio #2 ID : 3 Format : AC-3 Format/Info : Audio Coding 3 Commercial name : Dolby Digital Codec ID : A_AC3 Duration : 1 h 50 min Bit rate mode : Constant Bit rate : 384 kb/s Channel(s) : 6 channels Channel layout : L R C LFE Ls Rs Sampling rate : 48.0 kHz Frame rate : 31.250 FPS (1536 SPF) Compression mode : Lossy Stream size : 304 MiB (11%) Title : Original Language : English Service kind : Complete Main Default : No Forced : No Dialog Normalization : -31 dB cmixlev : -4.5 dB surmixlev : -6 dB dialnorm_Average : -31 dB dialnorm_Minimum : -31 dB dialnorm_Maximum : -31 dB Text #1 ID : 4 Format : UTF-8 Codec ID : S_TEXT/UTF8 Codec ID/Info : UTF-8 Plain Text Duration : 1 h 41 min Bit rate : 0 b/s Frame rate : 0.001 FPS Count of elements : 8 Stream size : 546 Bytes (0%) Title : Forced Language : Russian Default : No Forced : No Text #2 ID : 5 Format : UTF-8 Codec ID : S_TEXT/UTF8 Codec ID/Info : UTF-8 Plain Text Duration : 1 h 50 min Bit rate : 68 b/s Frame rate : 0.168 FPS Count of elements : 1114 Stream size : 55.7 KiB (0%) Title : Full -stirlooo 18+ Language : Russian Default : No Forced : No Text #3 ID : 6 Format : UTF-8 Codec ID : S_TEXT/UTF8 Codec ID/Info : UTF-8 Plain Text Duration : 1 h 12 min Bit rate : 0 b/s Frame rate : 0.002 FPS Count of elements : 10 Stream size : 140 Bytes (0%) Title : Forced Language : English Default : No Forced : No Text #4 ID : 7 Format : UTF-8 Codec ID : S_TEXT/UTF8 Codec ID/Info : UTF-8 Plain Text Duration : 1 h 43 min Bit rate : 47 b/s Frame rate : 0.215 FPS Count of elements : 1336 Stream size : 36.3 KiB (0%) Title : Full Language : English Default : No Forced : No Text #5 ID : 8 Format : UTF-8 Codec ID : S_TEXT/UTF8 Codec ID/Info : UTF-8 Plain Text Duration : 1 h 49 min Bit rate : 63 b/s Frame rate : 0.285 FPS Count of elements : 1874 Stream size : 50.8 KiB (0%) Title : SDH Language : English Default : No Forced : No Menu 00:00:00.000 : en:Scene 01 01:43:54.958 : en:End Credits
Релиз: Присоединяйся к: Кликай на баннеры.

Всего файлов в раздаче: 1 
Boy.Kills.World.2023.MVO.WEB-DLRip.720p.x264.seleZen.mkv2.77 GB

Похожие раздачи по запросу - Пацан
2024-06-14 magnet Злой пацан / Злой мальчик / An Angry Boy (2023) WEB-DLRip от New-Team | P | TVShows 1.47 GB ↑ 0 ↓ 1
2024-06-14 magnet Злой пацан / Злой мальчик / An Angry Boy (2023) WEB-DL 1080p от New-Team | P | TVShows 6.67 GB ↑ 0 ↓ 0
2024-06-14 magnet Злой пацан / Злой мальчик / An Angry Boy (2023) WEB-DL 720p от селезень | P | TVShows 3.19 GB ↑ 0 ↓ 0
2024-06-05 magnet Пацан против всех / Пробивний чувак / Boy Kills World (2024) WEB-DL-HEVC 2160p | 4K | SDR | P | UKR 9.00 GB ↑ 0 ↓ 1
2024-06-04 magnet Пацан против всех / Пробивний чувак / Boy Kills World (2024) WEB-DL 1080p | P | UKR 6.66 GB ↑ 0 ↓ 1
2024-05-27 magnet Пацан против всех / Boy Kills World (2023) WEB-DLRip-AVC | КПК | P | HDrezka Studio 500.47 MB ↑ 0 ↓ 0
2024-05-26 magnet Пацан против всех / Boy Kills World (2023) UHD WEB-DL-HEVC 2160p | 4K | SDR | P | HDRezka Studio 12.32 GB ↑ 0 ↓ 2

Кто качает (только для создателя раздачи и модераторов):
ПользовательIP:портОтдалПринялОстатокСидируетТоррент клиентОбновился
1 Аноним 254.169.125.176:32000 0.00 B 497.20 MB 2.69 GB нет -qB4390- 22:49 2024-06-24

Комментарии


Зарегистрируйтесь чтобы добавить комментарий
Торрент клиент
byTorrent - программа для загрузки торрент-файлов.

Скачать byTorrent.exe (1,5 МБ)

Скачать byTorrent.zip (0,6 МБ)

Поддержи torrent.by
российских рублей
(300 российских рублей это 4$)

Обратная связь rss

End game ©