↑↓torrent.by
Поиск
Логин:  Регистрация
Пароль:

twenty one pilots - Clancy [24Bit, Hi-Res] (2024) FLAC

download Скачать торрент-файл   magnet Магнитная ссылка Размер: 577.53 MB Добавлен: 2024-05-25 11:00
Пиры будут получены из сети DHT
Последний сидер был замечен 2024-06-04 19:01
twenty one pilots - Clancy (2024) Жанр: Indie-Pop, Pop-Rock, Electronic Издание: Fueled By Ramen Источник: qobuz Продолжительность: 00:47:18 Кодек: FLAC 24/44.1 Битрейт: Lossless|WEB-DL Тип рипа: tracks Треклист: 01 - Overcompensate 02 - Next Semester 03 - Backslide 04 - Midwest Indigo 05 - Routines in the Night 06 - Vignette 07 - The Craving (Jenna's Version) 08 - Lavish 09 - Navigating 10 - Snap Back 11 - Oldies Station 12 - At the Risk of Feeling Dumb 13 - Paladin Strait
[+] Дополнительная информация: седьмой студийный альбом американского музыкального дуэта Twenty One Pilots, релиз которого запланирован на 24 мая 2024 года на лейбле Fueled by Ramen. Альбом станет «заключительной главой» в серии концептуальных релизов группы, а его название отсылает к главному герою пятого студийного альбома дуэта Trench. https://www.twentyonepilots.com/ https://www.facebook.com/twentyonepilots
[+] Отчёт EAC: -------------------------------------------------------------------------------- Analyzed: twenty one pilots / Clancy -------------------------------------------------------------------------------- DR Peak RMS Duration Track -------------------------------------------------------------------------------- DR4 -0.10 dB -5.65 dB 3:56 01-Overcompensate DR4 -0.10 dB -6.32 dB 3:54 02-Next Semester DR5 -0.11 dB -7.59 dB 3:00 03-Backslide DR4 -0.10 dB -6.13 dB 3:16 04-Midwest Indigo DR5 -0.10 dB -6.68 dB 3:23 05-Routines In The Night DR5 -0.10 dB -6.70 dB 3:22 06-Vignette DR10 -0.30 dB -13.87 dB 2:54 07-The Craving (Jenna's version) DR6 -0.21 dB -7.33 dB 2:39 08-Lavish DR4 -0.10 dB -6.16 dB 3:43 09-Navigating DR4 -0.10 dB -6.49 dB 3:30 10-Snap Back DR5 -0.10 dB -9.14 dB 3:48 11-Oldies Station DR4 -0.10 dB -7.10 dB 3:24 12-At The Risk Of Feeling Dumb DR4 -0.10 dB -8.66 dB 6:29 13-Paladin Strait -------------------------------------------------------------------------------- Number of tracks: 13 Official DR value: DR5 Samplerate: 44100 Hz Channels: 2 Bits per sample: 24 Bitrate: 1505 kbps Codec: FLAC ================================================================================

Всего файлов в раздаче: 14 
01 Overcompensate.flac47.85 MB
02 Next Semester.flac50.06 MB
03 Backslide.flac36.04 MB
04 Midwest Indigo.flac41.30 MB
05 Routines In The Night.flac40.93 MB
06 Vignette.flac42.66 MB
07 The Craving (Jenna's version).flac31.41 MB
08 Lavish.flac34.04 MB
09 Navigating.flac47.94 MB
10 Snap Back.flac44.03 MB
Показать все файлы

Похожие раздачи по запросу - twenty
2024-05-21 magnet twenty one pilots - Clancy (2024) MP3 121.97 MB ↑ 0 ↓ 0

Комментарии


Зарегистрируйтесь чтобы добавить комментарий
Торрент клиент
byTorrent - программа для загрузки торрент-файлов.

Скачать byTorrent.exe (1,5 МБ)

Скачать byTorrent.zip (0,6 МБ)

Поддержи torrent.by
российских рублей
(300 российских рублей это 4$)

Обратная связь rss

End game ©