↑↓torrent.by
Поиск
Логин:  Регистрация
Пароль:

Братство волка 2: Возвращение оборотня / La bête du Gévaudan [2003, триллер, драма, детектив, DVDRip-AVC] MVO

download Скачать торрент-файл   magnet Магнитная ссылка Размер: 1.46 GB Добавлен: il68k 2024-05-25 15:37
Пиры будут получены из сети DHT
Последний сидер был замечен сегодня в 04:53
Братство волка 2: Возвращение оборотня / La bête du Gévaudan

Страна: Франция Жанр: триллер, драма, мелодрама, детектив Год выпуска: 2003 Продолжительность: 01:32:45
Перевод: Профессиональный (многоголосый закадровый) Субтитры: нет Оригинальная аудиодорожка: нет
Режиссер: Патрик Волсон
В ролях: Сагамор Стевенен, Леа Боско, Жан-Франсуа Стевенен, Гийом Гальенн, Венсан Винтеральтер, Марилин Ивен, Максим Леру, Луи-До де Ланкесэ, Изабель Лепренс, Борис Нэйпс
Описание: Миф о жеводанском звере – редкая легенда, рожденная во Франции. В 1776 году свыше ста жителей провинции Жеводан погибли в лесах от нападения огромного зверя, напоминавшего , по словам очевидцев, гигантского волка с вытянутой мордой и ножеподобными зубами. Король Луи XV собрал отряд солдат и охотников и организовал облаву на волков. Было убито полторы тысячи зверей, одна крупная особь отдаленно могла сойти за описанного. Зверя официально признали погибшим. Однако год спустя мистические убийства в жеводанских лесах возобновились…

СЕМПЛ Качество видео: DVDRip-AVC Формат видео: MKV Видео: AVC/H.264, 702х428@749x428, 25.0 fps, ~ 2025 kbps avg, 0.270 bit/pixel Аудио: AAC, 48.0 kHz, 5 ch, 224 kbps - русский
[+] MediaInfo
Общее
Уникальный идентификатор                 : 172616644566904282085823520683663252054 (0x81DCC1A7D40423FDB6AB6F331F635A56)
Полное имя                               : Братство волка 2. Возвращение оборотня - La bête du Gévaudan (2003).mkv
Формат                                   : Matroska
Версия формата                           : Version 2
Размер файла                             : 1,46 Гбайт
Продолжительность                        : 1 ч. 32 м.
Общий поток                              : 2 249 Кбит/сек
Частота кадров                           : 25,000 кадров/сек
Дата кодирования                         : 2017-06-20 04:46:01 UTC
Программа кодирования                    : mkvmerge v8.5.2 ('Crosses') 32bit
Библиотека кодирования                   : libebml v1.3.3 + libmatroska v1.4.4

Видео
Идентификатор                            : 1
Формат                                   : AVC
Формат/Информация                        : Advanced Video Codec
Профиль формата                          : High@L4.1
Настройки формата                        : CABAC / 16 Ref Frames
Параметр CABAC формата                   : Да
Параметр RefFrames формата               : 16 кадров
Идентификатор кодека                     : V_MPEG4/ISO/AVC
Продолжительность                        : 1 ч. 32 м.
Битрейт                                  : 2 025 Кбит/сек
Ширина                                   : 702 пикселя
Высота                                   : 428 пикселей
Соотношение сторон                       : 16:9
Режим частоты кадров                     : Постоянный
Частота кадров                           : 25,000 кадров/сек
Цветовое пространство                    : YUV
Субдискретизация насыщенности            : 4:2:0
Битовая глубина                          : 8 бит
Тип развёртки                            : Прогрессивная
Бит/(Пиксели*Кадры)                      : 0.270
Размер потока                            : 1,31 Гбайт (90%)
Библиотека кодирования                   : x264 core 148 r2638 7599210
Настройки программы                      : cabac=1 / ref=16 / deblock=1:-2:-2 / analyse=0x3:0x133 / me=tesa / subme=11 / psy=1 / psy_rd=1.00:0.25 / mixed_ref=1 / me_range=24 / chroma_me=1 / trellis=2 / 8x8dct=1 / cqm=0 / deadzone=6,6 / fast_pskip=0 / chroma_qp_offset=-4 / threads=12 / lookahead_threads=3 / sliced_threads=0 / nr=0 / decimate=0 / interlaced=0 / bluray_compat=0 / constrained_intra=0 / bframes=16 / b_pyramid=2 / b_adapt=2 / b_bias=0 / direct=3 / weightb=1 / open_gop=0 / weightp=2 / keyint=250 / keyint_min=25 / scenecut=40 / intra_refresh=0 / rc_lookahead=60 / rc=2pass / mbtree=1 / bitrate=2025 / ratetol=1.0 / qcomp=0.80 / qpmin=0 / qpmax=69 / qpstep=4 / cplxblur=20.0 / qblur=0.5 / vbv_maxrate=62500 / vbv_bufsize=78125 / nal_hrd=none / filler=0 / ip_ratio=1.10 / aq=1:0.50
Default                                  : Да
Forced                                   : Нет

Аудио
Идентификатор                            : 2
Формат                                   : AAC LC
Формат/Информация                        : Advanced Audio Codec Low Complexity
Идентификатор кодека                     : A_AAC-2
Продолжительность                        : 1 ч. 32 м.
Битрейт                                  : 221 Кбит/сек
Каналы                                   : 5 каналов
Channel layout                           : C L R Ls Rs
Частота                                  : 48,0 КГц
Частота кадров                           : 46,875 кадров/сек (1024 SPF)
Метод сжатия                             : С потерями
Размер потока                            : 147 Мбайт (10%)
Язык                                     : Russian
Default                                  : Да
Forced                                   : Нет

Меню
00:00:00.000                             : en:Chapter 01
00:03:32.720                             : en:Chapter 02
00:07:56.600                             : en:Chapter 03
00:12:55.800                             : en:Chapter 04
00:17:51.680                             : en:Chapter 05
00:27:35.080                             : en:Chapter 06
00:33:19.240                             : en:Chapter 07
00:38:39.120                             : en:Chapter 08
00:44:23.320                             : en:Chapter 09
00:50:31.200                             : en:Chapter 10
00:55:10.960                             : en:Chapter 11
01:01:10.800                             : en:Chapter 12
01:08:22.640                             : en:Chapter 13
01:13:55.440                             : en:Chapter 14
01:18:51.320                             : en:Chapter 15
01:25:31.120                             : en:Chapter 16
01:31:41.280                             : en:Chapter 17
[+] Скриншоты

Всего файлов в раздаче: 1 
Братство волка 2. Возвращение оборотня - La bête du Gévaudan (2003).mkv1.46 GB

Похожие раздачи по запросу - Братство
2024-05-18 magnet Властелин колец: Братство Кольца / The Lord of the Rings: The Fellowship of the Ring (2001) UHD WEB-DL-HEVC 2160p | 4K | SDR | Расширенная версия | D, P 51.67 GB ↑ 0 ↓ 0
2024-05-06 magnet Братство Бобра - Братство бобра (2018) MP3 79.84 MB ↑ 0 ↓ 0
2024-03-03 magnet Братство волка / Le Pacte des loups (2001) UHDRip 1080p от ExKinoRay | D, P, A, L1 | Расширенная версия 30.91 GB ↑ 0 ↓ 0
2024-01-11 magnet Снежное братство / Общество снега / La sociedad de la nieve / Society of the Snow (2023) WEB-DLRip-AVC | MVO 4.07 GB ↑ 0 ↓ 0

Комментарии


Зарегистрируйтесь чтобы добавить комментарий
Торрент клиент
byTorrent - программа для загрузки торрент-файлов.

Скачать byTorrent.exe (1,5 МБ)

Скачать byTorrent.zip (0,6 МБ)

Поддержи torrent.by
российских рублей
(300 российских рублей это 4$)

Обратная связь rss

End game ©