↑↓torrent.by
Поиск
Логин:  Регистрация
Пароль:

Падение империи / Повстання Штатів / Civil War (2024) WEB-DL 1080p | D | UKR

download Скачать торрент-файл   magnet Магнитная ссылка Размер: 6.64 GB Добавлен: 2024-05-26 05:00
Пиры будут получены из сети DHT
Последний сидер был замечен 2024-06-11 07:18
Информация о фильме Название: Падение империи Оригинальное название: Civil War Год выхода: 2023 Жанр: боевик, драма Режиссер: Алекс Гарленд В ролях: Кирстен Данст, Вагнер Моура, Кейли Спейни, Стивен Хендерсон, Соноя Мидзуно, Ник Офферман, Джефферсон Уайт, Хуани Фелиз, Нельсон Ли, Эдмунд Донован О фильме: Национальная гвардия Калифорнии и Техаса при поддержке боевой техники и авиации штурмуют столицу. Белый дом вот-вот падет. Группа журналистов пытается добраться до пылающего Вашингтона, чтобы взять последнее интервью у президента некогда Соединенных Штатов Америки. Но в стране, где царит хаос, нет ничего дороже литра бензина и ничего дешевле, чем человеческая жизнь. Страна: США, Великобритания Продолжительность: 01:48:45 Перевод: Дублированный | (Украинский) Файл Кодек: x.264 Качество: WEB-DL 1080p Видео: AVC, 1920x1040 (1.85:1), 23.976 fps, 7 521 kb/s Аудио 1: AC3, 48.0 kHz, 6 ch, 448 kb/s | UKR Аудио 2: E-AC3 JOC, 48.0 kHz, 6 ch, 768 kb/s | ENG Субтитры: английские (full, SDH)
[+] MIGeneral Unique ID : 219659082170040193157579328484454800047 (0xA540CCE66929AFBF9D8E0E9423259AAF) Complete name : Civil War (2024) WEB-DL 1080p Ukr Eng.mkv Format : Matroska Format version : Version 4 File size : 6.64 GiB Duration : 1 h 48 min Overall bit rate : 8 739 kb/s Encoded date : UTC 2024-05-25 15:39:34 Writing application : mkvmerge v8.3.0 ('Over the Horizon') 64bit Writing library : libebml v1.3.1 + libmatroska v1.4.2 Video ID : 1 Format : AVC Format/Info : Advanced Video Codec Format profile : High@L4 Format settings : CABAC / 4 Ref Frames Format settings, CABAC : Yes Format settings, Reference frames : 4 frames Codec ID : V_MPEG4/ISO/AVC Duration : 1 h 48 min Bit rate mode : Constant Bit rate : 7 521 kb/s Nominal bit rate : 10 000 kb/s Width : 1 920 pixels Height : 1 040 pixels Display aspect ratio : 1.85:1 Original display aspect ratio : 1.85:1 Frame rate mode : Constant Frame rate : 23.976 (24000/1001) FPS Color space : YUV Chroma subsampling : 4:2:0 Bit depth : 8 bits Scan type : Progressive Bits/(Pixel*Frame) : 0.157 Stream size : 5.71 GiB (86%) Default : Yes Forced : No Color range : Limited Color primaries : BT.709 Transfer characteristics : BT.709 Matrix coefficients : BT.709 Audio #1 ID : 2 Format : AC-3 Format/Info : Audio Coding 3 Commercial name : Dolby Digital Codec ID : A_AC3 Duration : 1 h 48 min Bit rate mode : Constant Bit rate : 448 kb/s Channel(s) : 6 channels Channel layout : L R C LFE Ls Rs Sampling rate : 48.0 kHz Frame rate : 31.250 FPS (1536 SPF) Compression mode : Lossy Stream size : 348 MiB (5%) Title : DUB Language : Ukrainian Service kind : Complete Main Default : Yes Forced : No Audio #2 ID : 3 Format : E-AC-3 JOC Format/Info : Enhanced AC-3 with Joint Object Coding Commercial name : Dolby Digital Plus with Dolby Atmos Codec ID : A_EAC3 Duration : 1 h 48 min Bit rate mode : Constant Bit rate : 768 kb/s Channel(s) : 6 channels Channel layout : L R C LFE Ls Rs Sampling rate : 48.0 kHz Frame rate : 31.250 FPS (1536 SPF) Compression mode : Lossy Delay relative to video : 19 ms Stream size : 597 MiB (9%) Title : Original Language : English Service kind : Complete Main Default : No Forced : No Complexity index : 16 Number of dynamic objects : 15 Bed channel count : 1 channel Bed channel configuration : LFE Text #1 ID : 4 Format : UTF-8 Codec ID : S_TEXT/UTF8 Codec ID/Info : UTF-8 Plain Text Duration : 1 h 39 min Bit rate : 34 b/s Count of elements : 989 Stream size : 25.4 KiB (0%) Title : Full Language : English Default : No Forced : No Text #2 ID : 5 Format : UTF-8 Codec ID : S_TEXT/UTF8 Codec ID/Info : UTF-8 Plain Text Duration : 1 h 40 min Bit rate : 39 b/s Count of elements : 1139 Stream size : 28.6 KiB (0%) Title : SDH Language : English Default : No Forced : No Menu 00:00:00.000 : en:Chapter 01 00:14:27.409 : en:Chapter 02 00:19:16.281 : en:Chapter 03 00:28:41.304 : en:Chapter 04 00:44:34.341 : en:Chapter 05 00:56:47.866 : en:Chapter 06 01:12:51.329 : en:Chapter 07 01:22:38.249 : en:Chapter 08 01:33:07.921 : en:Chapter 09 01:41:07.150 : en:Chapter 10
[+] Скриншоты

Всего файлов в раздаче: 1 
Civil War (2024) WEB-DL 1080p Ukr Eng.mkv6.64 GB

Похожие раздачи по запросу - Падение
2024-05-28 magnet Падение империи / Гражданская война / Civil War (2024) UHD WEB-DL 2160p | 4K | SDR | D, P2 16.52 GB ↑ 0 ↓ 2
2024-05-28 magnet Падение империи / Гражданская война / Civil War (2024) UHD WEB-DL 2160p | 4K | HDR | Dolby Vision Profile 8 | D, P2 19.05 GB ↑ 2 ↓ 12
2024-05-27 magnet Падение империи / Гражданская война / Civil War (2024) WEB-DLRip-AVC | D | HDRezka Studio 1.88 GB ↑ 0 ↓ 3
2024-05-27 magnet Падение империи / Гражданская война / Civil War (2024) WEB-DLRip 720p от DoMiNo & селезень | D, P2 | HDRezka Studio, ViruseProject 3.31 GB ↑ 0 ↓ 0
2024-05-27 magnet Падение империи / Гражданская война / Civil War (2024) WEB-DL 1080p от New-Team | D, P2 | HDRezka Studio, ViruseProject 6.93 GB ↑ 0 ↓ 17
2024-05-27 magnet Падение империи / Гражданская война / Civil War (2024) WEB-DLRip от MegaPeer | D | HDRezka Studio 1.46 GB ↑ 0 ↓ 0
2024-05-27 magnet Викинги: Взлет и падение / Vikings: Rise and Fall [S01] (2022) WEB-DL 1080p | Pazl Voice 8.02 GB ↑ 0 ↓ 0

Кто качает (только для создателя раздачи и модераторов): Локальные пиры отсутствуют

Комментарии


Зарегистрируйтесь чтобы добавить комментарий
Торрент клиент
byTorrent - программа для загрузки торрент-файлов.

Скачать byTorrent.exe (1,5 МБ)

Скачать byTorrent.zip (0,6 МБ)

Поддержи torrent.by
российских рублей
(300 российских рублей это 4$)

Обратная связь rss

End game ©